Поиск

1981 Gallery - Gallery (2019) {ECM} [24-96]

1981 Gallery - Gallery (2019) {ECM} [24-96]
Стили:
Дата записи диска:
1 мая 1981
Место записи:
Sound Ideas Studio, New York
Дата издания диска:
1 октября 1981
Дата переиздания диска:
9 августа 2019
Издатель (лейбл):
Номер по каталогу:
ECM 1206
Носитель:
WEB
Формат:
PCM
Тип рипа:
tracks
Контейнер:
FLAC (*.flac)
Количество каналов:
2.0
Разрядность/ЧД:
24/96
Битрейт аудио:
lossless
Время звучания:
00:43:37
Наличие сканов:
только обложка
Страна-производитель диска (релиза):
Germany
Релизёр (источник):
M0p94ok
Доп. инфо:

Еще одно загадочное издание в области, которая ещё не переиздана, Gallery следует по нежным стопам First Avenue. Его таланты немедленно отправляются ввысь в "Soaring", где бодрая энергия Дэйва Сэмюэлса находит дополнение в басисте Ратцо Харрисе и виолончелисте Дэвиде Дарлинге, которые оба скатываются с тонкого барабана и тарелок Майкла ДиПасква, словно слова из языка поэта. Здесь Дарлинг исполняет одни из самых великолепных импровизационных поворотов на альбоме. Его плавные линии продолжаются в «Prelude», дуэте с Сэмюэлсом, который разделяет дыхание с «A Lost Game». Последнее является преходящим, как и альбом в целом, разыгрывается особенно в ритмическом перекрестном соединении вибрации и ударных, очень деликатно передаваемых изгибами баса. Пол МакКэндлесс укладывает золотую фольгу своих красавиц с помощью соло сопрано-саксофона, которое поднимает эту конфигурацию на более высокий уровень, уступая только отражающей виолончели, которая следует за ней. «Картина» звучит как произведение из ансамбля Гэвина Брайарса, разворачивающееся в остатки сна Мортона Фельдмана, прежде чем пробудиться в гармоническом контракте «Бледного Солнца». Затем «Цапля» бросает нас в прозрачных вибрациях, и только приглушенный «Ночной дождь» показывает нам последний след.

Как видно из названия альбома, эта музыка представляет собой ряд искусных образов. Однако вместо того, чтобы вести нас через линейный проход творческих реликвий, он приносит нам этот проход, так что нам нужно только наблюдать ... и слушать.

https://www.prestomusic.com/jazz/products/8658442--gallery

https://www.highresaudio.com/en/album/view/jssgtt/gallery-gallery-remastered

Лог проверки качества
foobar2000 1.6.2 / Dynamic Range Meter 1.1.1
log date: 2021-05-27 19:15:55

--------------------------------------------------------------------------------
Analyzed: Gallery / Gallery
--------------------------------------------------------------------------------

DR         Peak         RMS     Duration Track
--------------------------------------------------------------------------------
DR12      -0.71 dB   -17.17 dB      7:39 01-Soaring
DR9       -7.26 dB   -20.92 dB      0:45 02-Prelude
DR12      -1.49 dB   -17.24 dB      8:15 03-A Lost Game
DR11      -3.75 dB   -19.16 dB      4:26 04-Painting
DR13      -1.26 dB   -18.06 dB      7:22 05-Pale Sun
DR12      -1.12 dB   -16.87 dB      8:35 06-Egert
DR11      -2.56 dB   -17.65 dB      6:39 07-Night Rain
--------------------------------------------------------------------------------

Number of tracks:  7
Official DR value: DR11

Samplerate:        96000 Hz
Channels:          2
Bits per sample:   24
Bitrate:           2759 kbps
Codec:             FLAC
================================================================================
No seeders - write personal message to M0p94ok. Any questions - support@pro-jazz.com.
Нет сидеров - пишите в личку M0p94ok. Есть вопросы - support@pro-jazz.com
19:32
76
Нет комментариев. Ваш будет первым!