Поиск

2021 Fredrika Stahl - Natten {Temper, Cristal Groupe} [24-96]

2021 Fredrika Stahl - Natten {Temper, Cristal Groupe} [24-96]
Стили:
Битрейт аудио:
lossless

Треклист:

01. Turn Of Life (03:14)
02. Rescue Me (02:53)
03. Electric (03:55)
04. Cruel World (02:57)
05. Rivers (02:53)
06. Finalement La Nuit (feat. Dominique A.) (03:20)
07. The Razor’s Edge (03:38)
08. Get Even (03:03)
09. The Fall (04:26)
10. Bed Sheets (03:34)
11. Static Cellophane (04:22)

Доп. инфо:

Формат записи/Источник записи: [TR24][OF]
Наличие водяных знаков: Нет
Год издания/переиздания диска: 2021
Издатель (лейбл): Temper / Cristal Groupe under exclusive licence to 10H10, distributed by Sony Music Entertainment France SAS
Продолжительность: 00:38:09
Наличие сканов в содержимом раздачи: Только обложка альбома
Источник (релизер): qobuz

Контейнер: FLAC (*.flac)
Тип рипа: tracks
Разрядность: 24/96
Формат: PCM
Количество каналов: 2.0

Лог проверки качества
foobar2000 1.6 / Dynamic Range Meter 1.1.1
log date: 2021-03-12 16:17:13

--------------------------------------------------------------------------------
Analyzed: Fredrika Stahl / Natten
--------------------------------------------------------------------------------

DR         Peak         RMS     Duration Track
--------------------------------------------------------------------------------
DR7       -0.02 dB    -9.72 dB      3:14 01-Turn of Life
DR5       -0.02 dB    -8.54 dB      2:53 02-Rescue Me
DR6       -0.02 dB    -7.74 dB      3:55 03-Electric
DR6       -0.02 dB    -8.27 dB      2:57 04-Cruel World
DR8       -0.05 dB   -10.92 dB      2:53 05-Rivers
DR5       -0.02 dB    -7.89 dB      3:19 06-Finalement la nuit
DR6       -0.02 dB    -8.99 dB      3:38 07-The Razor's Edge
DR7       -0.02 dB    -8.83 dB      3:03 08-Get Even
DR5       -0.02 dB    -7.63 dB      4:26 09-The Fall
DR7       -0.04 dB    -9.92 dB      3:34 10-Bed Sheets
DR6       -0.02 dB    -8.10 dB      4:22 11-Static Cellophane
--------------------------------------------------------------------------------

Number of tracks:  11
Official DR value: DR6

Samplerate:        96000 Hz
Channels:          2
Bits per sample:   24
Bitrate:           2831 kbps
Codec:             FLAC
================================================================================
Приватный:
Нет (DHT включён)
Размер:
795.61 Мб (834,262,659 байт) » файлов: 14
Участники:
0 раздают, 1 качают (1 участников всего)
Внешние участники:
5 раздают, 2 качают (7 участников всего) [ Обновить ]
No seeders - write personal message to M0p94ok. Нет сидеров - пишите в личку M0p94ok.
16:01
32
Нет комментариев. Ваш будет первым!