Поиск

2011 Fattigfolket - Park (2019) {Ozella} [24-44.1]

2011 Fattigfolket - Park (2019) {Ozella} [24-44.1]
Дата издания диска:
11 июля 2011
Издатель (лейбл):
Номер по каталогу:
OZ 038
Носитель:
WEB
Формат:
PCM
Тип рипа:
tracks
Контейнер:
FLAC (*.flac)
Количество каналов:
2.0
Битрейт аудио:
lossless
Время звучания:
00:50:55
Наличие сканов:
только обложка
Страна-производитель диска (релиза):
Denmark
Релизёр (источник):
M0p94ok
Доп. инфо:

Собрав одиннадцать из этих счастливых моментов, первый полноформатный альбом Fattigfolket, распространяемый по всему миру после двух альбомов, опубликованных в их нынешней родной Дании, оказался тонкой концептуальной работой. Музыка группы, чье название переводится как «бедные люди» в связи со стремительным ростом благосостояния Норвегии за последнее столетие, вращается вокруг множества парков, расположенных в основном в Германии, не просто банально переносит визуальные впечатления на людей. царство звуков, но пытается перевести потенциально сложные эмоции в непосредственные композиции. Таким образом, они интригующе раскрывают детали, невидимые для глаз и ушей случайного посетителя: берлинский Пфауенинзель, несколько скрытый остров в центре столицы Германии, звучит на удивление ярко и воодушевляюще, а парк Мариенберг в Нюрнберге, который превратился в социальный место встречи за последние годы, показывает свою более интимную сторону по этому поводу.

Эти контрасты создают идеальную основу для работы группы с настроением, мелодией и цветом. Авторские права распределены между саксофонистом и кларнетистом Халлвардом Годалом, а также басистом Путте Йохандером, и стилистически альбом простирается от медленных соблазнительных ритмов до хрупкой мрачной акустики Innocentia Park. Между тем, все произведения выигрывают от гибкого взаимодействия между Годалом и рогоносцем Хуннаром Халле. Вместо того, чтобы брать на себя обычные сольные роли, оба постоянно переосмысливают свою позицию, выступая в качестве гармоничной поддержки для другого в один момент, а в следующий момент вступая в сложные дуэты. Благодаря этому непрекращающемуся потоку «Park» звучит совсем как типично меланхоличный сборник джаз-баллад. Это не столько музыкальный импрессионизм, сколько внутреннее молчание, которого добиваются Fattigfolket - и тем самым они уводят слушателей в свой собственный небольшой парк в их сознании.

https://ozellamusic.bandcamp.com/album/park

https://www.highresaudio.com/en/album/view/ncc3od/fattigfolket-park

Лог проверки качества
foobar2000 1.6.2 / Dynamic Range Meter 1.1.1
log date: 2021-05-27 15:45:34

--------------------------------------------------------------------------------
Analyzed: Fattigfolket / Park
--------------------------------------------------------------------------------

DR         Peak         RMS     Duration Track
--------------------------------------------------------------------------------
DR13      -0.12 dB   -15.61 dB      5:50 01-Pfaueninsel Park (Putte Johander)
DR12      -0.10 dB   -13.93 dB      5:57 02-Brentanopark (Hallvard Godal)
DR14      -0.11 dB   -18.17 dB      4:57 03-Barnim Park (Hallvard Godal)
DR14      -0.10 dB   -16.40 dB      2:54 04-Hesperides Park (Hallvard Godal)
DR15      -0.10 dB   -18.16 dB      4:18 05-Lohrpark (Hallvard Godal)
DR12      -2.20 dB   -18.40 dB      4:17 06-Mauerpark (Putte Johander)
DR12      -0.04 dB   -14.27 dB      4:48 07-Tierpark (Hallvard Godal)
DR12      -1.99 dB   -18.27 dB      3:14 08-Innocentia Park (Hallvard Godal)
DR15      -1.62 dB   -20.12 dB      5:40 09-Marienberg Park (Hallvard Godal)
DR14      -0.10 dB   -17.99 dB      5:05 10-Grunewald (Putte Johander)
DR14      -0.25 dB   -18.32 dB      4:35 11-Agra Park (Godal/Johander)
--------------------------------------------------------------------------------

Number of tracks:  11
Official DR value: DR13

Samplerate:        44100 Hz
Channels:          2
Bits per sample:   24
Bitrate:           1421 kbps
Codec:             FLAC
================================================================================
No seeders - write personal message to M0p94ok. Any questions - support@pro-jazz.com.
Нет сидеров - пишите в личку M0p94ok. Есть вопросы - support@pro-jazz.com
15:52
70
Нет комментариев. Ваш будет первым!