Поиск

2021 Quatuor Ellipsos - Saxophonie {NoMadMusic} [24-96]

2021 Quatuor Ellipsos - Saxophonie {NoMadMusic} [24-96]
Битрейт аудио:
lossless
Доп. инфо:

Этим вторым альбомом на NoMadMusic Ellipsos Quartet отдает дань уважения композитору Фернанде Декрук, любопытно неизвестному во Франции, но известному в Соединенных Штатах. Фернанда Декрюк написала много пьес для саксофона и особенно для квартета. Ее музыка, очень утонченная и окрашенная в ритмическую и гармоничную дерзость, находится на перекрестке миров Равеля, Стравинского, Гершвина и Дебюсси. Мир звука, который предстоит открыть для себя благодаря этим неопубликованным произведениям, большинство из которых впервые были опубликованы в этом году Billaudot.

 Формат записи | Источник записи: [TR24][OF]
• Наличие водяных знаков: Нет
• Год издания релиза: 2021
• Лейбл: NoMadMusic
• Продолжительность: 01:04:33
• Источник: internet
• WEB релиз: ссылка
• Контейнер: FLAC (*.flac)
• Тип рипа: tracks
• Разрядность: 24/96
• Формат: PCM
• Количество каналов: 2.0
• Наличие сканов: front + booklet

Лог проверки качества
foobar2000 1.4.2 / Dynamic Range Meter 1.1.1
log date: 2021-03-14 21:48:55

--------------------------------------------------------------------------------
Analyzed: Quatuor Ellipsos / Saxophonie
--------------------------------------------------------------------------------

DR         Peak         RMS     Duration Track
--------------------------------------------------------------------------------
DR11      -2.22 dB   -17.32 dB      4:23 01-Pavane
DR11      -0.44 dB   -16.10 dB      4:19 02-Saxophonescas: I. HГ©roГЇque
DR9       -5.33 dB   -19.66 dB      4:02 03-Saxophonescas: II. Faunesque
DR10      -1.57 dB   -16.61 dB      2:18 04-Saxophonescas: III. Fantasmagorie
DR9       -8.94 dB   -22.16 dB      2:22 05-Saxophonescas: IV. Pianissimo
DR9       -1.73 dB   -18.50 dB      0:56 06-Saxophonescas: V. ParenthГЁses
DR10      -2.37 dB   -17.76 dB      2:30 07-Saxophonescas: VI. Histoire sans nom
DR10      -1.12 dB   -15.54 dB      2:04 08-Saxophonescas: VII. Choral orphГ©onique
DR10      -1.50 dB   -14.90 dB      2:04 09-Saxophonescas: VIII. Fuguesque...
DR9       -3.91 dB   -18.29 dB      3:04 10-Deux berceuses: I. Mouvement calme et souple de berceuse
DR12       0.00 dB   -18.17 dB      3:12 11-Deux berceuses: II. Berceuse HГ©roГЇque
DR9       -3.79 dB   -17.90 dB      1:38 12-Variations saxophoniques: I. Andante espressivo
DR8       -4.27 dB   -18.18 dB      1:02 13-Variations saxophoniques: II. Stesso tempo, molto espressivo e sostenuto
DR10      -4.72 dB   -19.15 dB      0:48 14-Variations saxophoniques: III. Allegretto scherzando
DR9       -4.55 dB   -17.94 dB      1:20 15-Variations saxophoniques: IV. Con flessibilita, senza rigore
DR10      -2.43 dB   -14.05 dB      0:58 16-Variations saxophoniques: V. Allegro moderato energico
DR9       -5.01 dB   -19.08 dB      0:46 17-Variations saxophoniques: VI. Allegro ma non troppo
DR10      -3.13 dB   -18.44 dB      2:50 18-Variations saxophoniques: VII. Lento espressivo (molto cantando)
DR9       -3.63 dB   -17.60 dB      1:08 19-Variations saxophoniques: VIII. Tempo flessibile e vivo di filatosa
DR9       -2.88 dB   -15.34 dB      1:09 20-Variations saxophoniques: IX. Agitato e tumultuoso
DR9       -4.89 dB   -19.49 dB      1:30 21-Variations saxophoniques: X. Moderato e senza rigore, molto espressivo
DR9       -4.69 dB   -17.45 dB      1:34 22-Variations saxophoniques: XI. Moderato senza Pentezza
DR10      -1.81 dB   -16.84 dB      2:25 23-Variations saxophoniques: XII. Fugue - Allegro moderato con ritmo
DR10      -1.66 dB   -17.00 dB      2:30 24-Saxofonia di camera: I. Andante
DR12      -1.07 dB   -17.27 dB      2:07 25-Saxofonia di camera: II. Allegro moderato, con anima
DR10      -4.06 dB   -19.16 dB      3:51 26-Saxofonia di camera: III. Andantino affectuoso
DR11      -0.16 dB   -16.34 dB      3:38 27-Saxofonia di camera: IV. Allegro con moto, poco agitato
DR9       -2.39 dB   -16.12 dB      0:46 28-Saxophonie: I. Allegro moderato
DR11      -1.51 dB   -16.10 dB      2:16 29-Saxophonie: II. Lento expressivo
DR11      -0.55 dB   -13.82 dB      1:03 30-Saxophonie: III. Tempo di jazz
--------------------------------------------------------------------------------

Number of tracks:  30
Official DR value: DR10

Samplerate:        96000 Hz
Channels:          2
Bits per sample:   24
Bitrate:           2399 kbps
Codec:             FLAC
================================================================================
No seeders - write personal message to M0p94ok. Any questions - support@pro-jazz.com.
Нет сидеров - пишите в личку M0p94ok. Есть вопросы - support@pro-jazz.com
13:57
72
Нет комментариев. Ваш будет первым!