Поиск

2019 We Kids Trio - Dali {Tǔk Music} [24-96]

2019 We Kids Trio - Dali {Tǔk Music} [24-96]
Дата издания диска:
22 ноября 2019
Битрейт аудио:
lossless

Треклист:

01. Surrealism Suite: I. —  05:36
02. Surrealism Suite: II. —  01:09
03. Surrealism Suite: III. —  02:03
04. Surrealism Suite: IV. —  05:55
05. Dalì vs. Disney  00:36
06. Subconscious Suite: I. —  05:01
07. Subconscious Suite:II. —  06:31
08. Subconscious Suite: III. —  01:30
09. Subconscious Suite: IV. —  02:11
10. Dalì vs. Bunuel  00:30
11. Depression Suite: I. —  06:31
12. Depression Suite: II. —  03:11
13. Dalì all'eternità  03:42
14. Dalì vs. Roach  01:08

Доп. инфо:

Вместе с Дали барабанщик и композитор Стефано Баньоли представляет свой третий трибьют-альбом вместе со своим трио We Kids. Предыдущие трибьют-альбомы были посвящены Билли Стрейхорну (2015), аранжировщику и композитору оркестра Дюка Эллингтона, и поэту Артуру Рембо (2017). Баньоли, которого друзья ласково прозвали Брашман за его особенное использование джазовых щёток, является одним из самых известных итальянских джазовых музыкантов. Имея семейный опыт в джазе - дядя Карло и отец Луиджи Баньоли основали в 1951 году Миланский колледж джазового общества, - он рано получил уроки игры на барабанах. В 1978 году начал карьеру профессионального барабанщика. Как участник многочисленных джазовых групп, он заработал в Италии репутацию исключительно талантливого барабанщика. Его можно услышать на альбомах Джанни Бассо, Энрико Рава, Андреа Поцца, Бруно Ди Филиппи / Джанни Кошиа, Фурио Ди Кастри, Майкла Розена, Микелы Ломбарди / Ренато Селлани, Фрица Хартшу, Данило Реа и Массимо Раньери. В 2011 году он основал свое первое «We Kids Trio», в которое с 2016 года входят пианист Джузеппе Витале и контрабасист Стефано Замбон.

В духе сюрреалистической живописи, представленной Сальваторе Дали в качестве фронтмена, We Kids Trio смешивает традиционный с электронным джазом и в духе сюрреализма, передавая сказочные, бессознательные, абсурдные и фантастические, сказочные последовательности звуков рядом с ними скурриль звуковых творений.

В альбоме Dali представлена ​​джазовая музыка, большая часть которой разделена на три сюиты. Сюита сюрреализма с четырьмя движениями очень осторожно вводит мир звукового сюрреализма а-ля Стефано Баньоли в первой части с преимущественно традиционным исполнением джаза с преобладанием фортепьяно, который приобретает большую форму во второй части, реализованной с помощью электроники, в которой фортепиано заменено на фортепиано. клавиатура. В третьей части контрабас, обрамленный семплами и электроникой, привносит более глубокий сюрреализм, пока, наконец, четвертая часть в стиле фьюжн, которая сильнее подчеркивает сюрреалистичность, не заставила пианиста заменить свой клавишный инструмент электрогитарой Fender.

За чрезвычайно короткой, сюрреалистической и без того отстраненной "Дали против Диснея", движимой контрабасом и небрежно прокомментированной фортепиано, следует четырехчастная Subconscious Suite, первая часть которой изначально отдает приоритет барабанам, а затем рояль вмешивается в поначалу мечтательную мелодию, которая в дальнейшем сильно усиливается в краткости и быстротечности, чтобы, наконец, внезапно утихнуть. Все это напоминает ту или иную картину Дали, в которой непонятные элементы врастают в картину и выходят из нее из ниоткуда. Образцы голоса мастера проявляются в тихой мелодии второй части. После дико смешанной третьей части марша и танцевальных элементов наступает финальная часть, которая выходит за рамки спокойного звучания этой балладной сюиты и позволяет нам глубже заглянуть в фантастическую структуру альбома Dali. Переход к двухчастной Depression Suite обеспечивается лихорадочными полминутами «Дали против Бунюэля». Первоначально эта сюита оказывается абсурдно плавающим событием фьюжн, за которым следует вторая и последняя часть, приправленная драматизмом и поддерживаемая электроникой. За Depression Suite следует фантастически созданная и финальная, дико разросшаяся "Dali all eternità" и "Dali vs Roach" с электронной начинкой, которая в некотором смысле менее подходит для окончательного охлаждения, и на которой хотелось бы перезапустить альбом. чтобы снова начать поистине причудливое путешествие, согласно Дали.

Действительно, с их особенным джазовым миксом на альбоме Dali, We Kids Trio, по крайней мере, удается достаточно близко приблизиться к цели сюрреализма, получить новый опыт и получить новое понимание. Для слушателя это путешествие в сюрреалистическое означает получение джазового удовольствия, которое является интересной альтернативой джазу, представленному традиционным способом.

• Формат записи | Источник записи: [TR24][OF]
• Наличие водяных знаков: Нет
• Страна: Tǔk Music
• Год издания релиза: 2019
• Продолжительность: 00:45:40
• Источник: internet
• WEB релиз: ссылка
• Контейнер: FLAC (*.flac)
• Тип рипа: tracks
• Разрядность: 24/96
• Формат: PCM
• Количество каналов: 2.0
• Наличие сканов: front

Лог проверки качества
foobar2000 1.4.2 / Dynamic Range Meter 1.1.1
log date: 2021-03-14 21:53:58

--------------------------------------------------------------------------------
Analyzed: We Kids Trio / Dali
--------------------------------------------------------------------------------

DR         Peak         RMS     Duration Track
--------------------------------------------------------------------------------
DR12      -0.50 dB   -17.46 dB      5:36 01-Surrealism Suite: I.”
DR14      -1.83 dB   -19.04 dB      1:09 02-Surrealism Suite: II.”
DR13      -0.69 dB   -16.84 dB      2:04 03-Surrealism Suite: III.”
DR12      -0.50 dB   -16.37 dB      5:55 04-Surrealism Suite: IV.”
DR11      -2.50 dB   -16.90 dB      0:36 05-Dali vs. Disney
DR13      -0.50 dB   -16.15 dB      5:02 06-Subconscious Suite: I.”
DR15      -0.71 dB   -19.63 dB      6:32 07-Subconscious Suite:II.”
DR12      -0.50 dB   -16.54 dB      1:31 08-Subconscious Suite: III.”
DR12      -1.26 dB   -17.46 dB      2:12 09-Subconscious Suite: IV.”
DR10      -2.88 dB   -16.55 dB      0:31 10-Dali vs. Bunuel
DR14      -0.65 dB   -17.95 dB      6:31 11-Depression Suite: I.”
DR10      -0.50 dB   -14.23 dB      3:11 12-Depression Suite: II.”
DR14      -0.50 dB   -16.50 dB      3:43 13-Dali all'eternit
DR13      -0.50 dB   -15.40 dB      1:09 14-Dali vs. Roach
--------------------------------------------------------------------------------

Number of tracks:  14
Official DR value: DR13

Samplerate:        96000 Hz
Channels:          2
Bits per sample:   24
Bitrate:           2313 kbps
Codec:             FLAC
================================================================================
Приватный:
Нет (DHT включён)
Размер:
834.93 Мб (875,491,368 байт) » файлов: 15
Участники:
0 раздают, 1 качают (1 участников всего)
Внешние участники:
3 раздают, 1 качают (4 участников всего) [ Обновить ]
No seeders - write personal message to M0p94ok. Any questions - support@pro-jazz.com.
Нет сидеров - пишите в личку M0p94ok. Есть вопросы - support@pro-jazz.com
09:53
37
Нет комментариев. Ваш будет первым!