Вы используете незарегистрированную версию компонента "Вкладки"!

Поиск

2019 Eddie Parker - Debussy Mirrored Ensemble {Eddie Parker} [24-44.1]

2019 Eddie Parker - Debussy Mirrored Ensemble {Eddie Parker} [24-44.1]
Дата издания диска:
13 сентября 2019
Носитель:
WEB
Формат:
PCM
Тип рипа:
tracks
Контейнер:
FLAC (*.flac)
Количество каналов:
2.0
Разрядность/ЧД:
24/44,1
Битрейт аудио:
lossless
Время звучания:
00:59:16
Наличие сканов:
только обложка
Страна-производитель диска (релиза):
USA
Релизёр (источник):
M0p94ok
Лог проверки качества
foobar2000 1.6.2 / Dynamic Range Meter 1.1.1
log date: 2021-07-02 11:08:16

--------------------------------------------------------------------------------
Analyzed: Eddie Parker / Debussy Mirrored Ensemble
--------------------------------------------------------------------------------

DR         Peak         RMS     Duration Track
--------------------------------------------------------------------------------
DR11      -0.13 dB   -16.11 dB      3:55 01-La Chevelure (Live)
DR13      -0.11 dB   -15.92 dB      6:27 02-De Soir (Live)
DR13      -2.94 dB   -21.48 dB      6:16 03-Little Shepherd (Live)
DR12      -0.39 dB   -16.73 dB      5:37 04-Claire de Lune (Live)
DR13      -0.10 dB   -17.64 dB     16:19 05-X-Boite a Jou Jou (Live)
DR14      -2.33 dB   -21.36 dB      3:50 06-Eventail (Live)
DR15      -2.29 dB   -23.31 dB     10:36 07-Syrinx, si doucement perdue (Live)
DR13      -0.10 dB   -17.51 dB      6:16 08-Il Pleut (Live)
--------------------------------------------------------------------------------

Number of tracks:  8
Official DR value: DR13

Samplerate:        44100 Hz
Channels:          2
Bits per sample:   24
Bitrate:           1403 kbps
Codec:             FLAC
================================================================================
Any questions - support@pro-jazz.com. Есть вопросы - support@pro-jazz.com
11:13
87
Нет комментариев. Ваш будет первым!