Поиск

2021 Skarbø Skulekorps - Dugnad {Hubro} [24-96]

2021 Skarbø Skulekorps - Dugnad {Hubro} [24-96]
Дата издания диска:
26 марта 2021
Битрейт аудио:
lossless
Доп. инфо:

«В этом альбоме есть все. Вот почему это не для всех ". Заявление принадлежит Эйвинду Скарбо; руководителю оркестра, барабанщику и композитору.

• Формат записи | Источник записи: [TR24][OF]
• Наличие водяных знаков: Нет
• Год издания релиза: 2021
• Лейбл: Hubro
• Продолжительность: 00:30:07
• Источник: internet
• WEB релиз: ссылка
• Контейнер: FLAC (*.flac)
• Тип рипа: tracks
• Разрядность: 24/96
• Формат: PCM
• Количество каналов: 2.0
• Наличие сканов: front

Лог проверки качества
foobar2000 1.4.2 / Dynamic Range Meter 1.1.1
log date: 2021-04-04 08:16:31

--------------------------------------------------------------------------------
Analyzed: SkarbГё Skulekorps / Dugnad
--------------------------------------------------------------------------------

DR         Peak         RMS     Duration Track
--------------------------------------------------------------------------------
DR9       -1.96 dB   -14.12 dB      1:22 01-Hei
DR6       -0.50 dB    -8.62 dB      1:59 02-Kassett
DR7       -0.50 dB   -10.65 dB      5:29 03-Triple F
DR7       -0.50 dB    -8.30 dB      1:51 04-F-Punk
DR11      -4.26 dB   -18.25 dB      1:22 05-Central Parker
DR11      -5.04 dB   -18.95 dB      0:25 06-F-Punk 8-bit
DR7       -0.50 dB   -10.17 dB      2:55 07-Hestens Apostel
DR6       -0.50 dB    -8.53 dB      1:29 08-Mirror Maps
DR6       -0.50 dB    -7.98 dB      1:52 09-PGA The Fruit
DR12      -4.44 dB   -18.48 dB      0:48 10-Aslan
DR6       -0.50 dB    -8.59 dB      1:17 11-Elia
DR9       -0.50 dB   -11.66 dB      2:35 12-Murgröna
DR6       -1.00 dB    -7.81 dB      3:16 13-Anti-Crime Computer
DR6       -0.50 dB   -11.78 dB      3:27 14-40x10
--------------------------------------------------------------------------------

Number of tracks:  14
Official DR value: DR8

Samplerate:        96000 Hz
Channels:          2
Bits per sample:   24
Bitrate:           2721 kbps
Codec:             FLAC
================================================================================
No seeders - write personal message to M0p94ok. Any questions - support@pro-jazz.com.
Нет сидеров - пишите в личку M0p94ok. Есть вопросы - support@pro-jazz.com
09:21
49
Нет комментариев. Ваш будет первым!