Поиск

2021 Sam Fribush Organ Trio - Vol.2 The Root {CHM} [24-48]

2021 Sam Fribush Organ Trio - Vol.2 The Root {CHM} [24-48]
Стили:
Дата записи диска:
21 декабря - 22 декабря 2020
Место записи:
High Point Studio, New York City, NY, USA
Дата издания диска:
5 марта 2021
Битрейт аудио:
lossless
Доп. инфо:

• Формат записи | Источник записи: [TR24][OF]
• Наличие водяных знаков: Нет
• Год издания релиза: 2021
• Лейбл: CHM
• Продолжительность: 00:41:45
• Источник: internet
• WEB релиз: ссылка
• Контейнер: FLAC (*.flac)
• Тип рипа: tracks
• Разрядность: 24/48
• Формат: PCM
• Количество каналов: 2.0
• Наличие сканов: front

Лог проверки качества
foobar2000 1.4.2 / Dynamic Range Meter 1.1.1
log date: 2021-04-04 08:15:09

--------------------------------------------------------------------------------
Analyzed: Sam Fribush / Sam Fribush Organ Trio, Vol. II: The Root
--------------------------------------------------------------------------------

DR         Peak         RMS     Duration Track
--------------------------------------------------------------------------------
DR7       -0.30 dB    -8.80 dB      6:17 01-Stomp and Buck Dance
DR8       -0.30 dB    -9.90 dB      3:49 02-The Root
DR8       -0.30 dB    -9.86 dB      5:06 03-Swingin' at the Haven
DR7       -0.30 dB    -8.61 dB      4:32 04-Fly Fri
DR8       -0.30 dB   -10.53 dB      5:05 05-There'll Never Be
DR7       -0.30 dB    -8.99 dB      4:22 06-Will It Go Round in Circles
DR8       -0.30 dB   -11.57 dB      4:07 07-We Must Be in Love
DR9       -0.30 dB   -12.78 dB      4:02 08-A Flower is a Lovesome Thing
DR7       -0.30 dB    -8.16 dB      4:25 09-Will It Go Round (Take 2)
--------------------------------------------------------------------------------

Number of tracks:  9
Official DR value: DR8

Samplerate:        48000 Hz
Channels:          2
Bits per sample:   24
Bitrate:           1721 kbps
Codec:             FLAC
================================================================================
No seeders - write personal message to M0p94ok. Any questions - support@pro-jazz.com.
Нет сидеров - пишите в личку M0p94ok. Есть вопросы - support@pro-jazz.com
15:16
50
Нет комментариев. Ваш будет первым!