Поиск

2019 Dan Weiss Trio Plus 1 - Utica Box {Sunnyside} [24-96]

2019 Dan Weiss Trio Plus 1 - Utica Box {Sunnyside} [24-96]
Стили:
Дата издания диска:
8 ноября 2019
Издатель (лейбл):
Номер по каталогу:
SSC 1573
Носитель:
WEB
Формат:
PCM
Тип рипа:
tracks
Контейнер:
FLAC (*.flac)
Количество каналов:
2.0
Разрядность/ЧД:
24/96
Битрейт аудио:
lossless
Время звучания:
01:04:32
Наличие сканов:
только обложка
Страна-производитель диска (релиза):
USA
Релизёр (источник):
M0p94ok
Лог проверки качества
foobar2000 1.6.2 / Dynamic Range Meter 1.1.1
log date: 2021-07-01 10:35:38

--------------------------------------------------------------------------------
Analyzed: Dan Weiss Trio Plus 1 / Utica Box
--------------------------------------------------------------------------------

DR         Peak         RMS     Duration Track
--------------------------------------------------------------------------------
DR13      -0.50 dB   -18.08 dB     17:02 01-Utica Box
DR14      -0.50 dB   -19.81 dB      2:22 02-Jamerson
DR14      -2.25 dB   -20.94 dB      5:52 03-Rock and Heat
DR14      -0.50 dB   -19.81 dB     11:29 04-Orange
DR14      -1.77 dB   -19.37 dB      6:01 05-Please Don't Leave
DR15      -4.07 dB   -22.78 dB      5:50 06-Last Time One More Time
DR13      -0.50 dB   -18.32 dB     15:56 07-Bonham
--------------------------------------------------------------------------------

Number of tracks:  7
Official DR value: DR14

Samplerate:        96000 Hz
Channels:          2
Bits per sample:   24
Bitrate:           2652 kbps
Codec:             FLAC
================================================================================
No seeders - write personal message to M0p94ok. Any questions - support@pro-jazz.com.
Нет сидеров - пишите в личку M0p94ok. Есть вопросы - support@pro-jazz.com
11:21
73
Нет комментариев. Ваш будет первым!