Поиск

2021 Sam Fribush Organ Trio - Vol.1: Riverboat {CHM} [24-48]

2021 Sam Fribush Organ Trio - Vol.1: Riverboat {CHM} [24-48]
Стили:
Дата записи диска:
21 декабря - 22 декабря 2020
Место записи:
High Point Studio, New York City, NY, USA
Дата издания диска:
5 марта 2021
Битрейт аудио:
lossless
Доп. инфо:

• Формат записи | Источник записи: [TR24][OF]
• Наличие водяных знаков: Нет
• Год издания релиза: 2021
• Лейбл: CHM
• Продолжительность: 00:32:21
• Источник: internet
• WEB релиз: ссылка
• Контейнер: FLAC (*.flac)
• Тип рипа: tracks
• Разрядность: 24/48
• Формат: PCM
• Количество каналов: 2.0
• Наличие сканов: front

Лог проверки качества
foobar2000 1.4.2 / Dynamic Range Meter 1.1.1
log date: 2021-04-04 08:14:49

--------------------------------------------------------------------------------
Analyzed: Sam Fribush / Sam Fribush Organ Trio, Vol. I: Riverboat
--------------------------------------------------------------------------------

DR         Peak         RMS     Duration Track
--------------------------------------------------------------------------------
DR7       -0.30 dB    -9.51 dB      4:38 01-Riverboat
DR9       -0.30 dB   -11.15 dB      4:25 02-Spanish Joint
DR7       -0.30 dB    -8.99 dB      4:26 03-Let's Give Them Something to Talk About
DR7       -0.30 dB    -8.87 dB      5:03 04-Toothpick
DR8       -0.30 dB   -10.88 dB      4:57 05-Lonely Like Me
DR11      -0.30 dB   -15.90 dB      4:37 06-Plum Blossom
DR7       -0.30 dB    -8.99 dB      4:14 07-Will It Go Round (Take 3)
--------------------------------------------------------------------------------

Number of tracks:  7
Official DR value: DR8

Samplerate:        48000 Hz
Channels:          2
Bits per sample:   24
Bitrate:           1694 kbps
Codec:             FLAC
================================================================================
No seeders - write personal message to M0p94ok. Any questions - support@pro-jazz.com.
Нет сидеров - пишите в личку M0p94ok. Есть вопросы - support@pro-jazz.com
21:06
62
Нет комментариев. Ваш будет первым!