Поиск

2019 Carla Marciano Quartet - Psychosis - Homage to Bernard Herrmann {Challenge} [24-44.1]

2019 Carla Marciano Quartet - Psychosis - Homage to Bernard Herrmann {Challenge} [24-44.1]
Стили:
Дата записи диска:
19 сентября - 20 сентября 2018
Место записи:
Zork Planet, Buccino (Salerno), Italy
Дата издания диска:
6 сентября 2019
Издатель (лейбл):
Номер по каталогу:
CR73486
Носитель:
WEB
Формат:
PCM
Тип рипа:
tracks
Контейнер:
FLAC (*.flac)
Количество каналов:
2.0
Разрядность/ЧД:
24/44,1
Битрейт аудио:
lossless
Время звучания:
01:09:00
Наличие сканов:
да
Страна-производитель диска (релиза):
Austria
Релизёр (источник):
M0p94ok
Лог проверки качества
foobar2000 1.6.2 / Dynamic Range Meter 1.1.1
log date: 2021-06-30 18:48:16

--------------------------------------------------------------------------------
Analyzed: Carla Marciano Quartet / Psychosis - Homage to Bernard Herrmann
--------------------------------------------------------------------------------

DR         Peak         RMS     Duration Track
--------------------------------------------------------------------------------
DR10      -0.29 dB   -14.60 dB      9:19 01-Theme from "Taxi Driver" (Betsy's Theme)
DR8       -0.28 dB   -10.41 dB     11:32 02-Theme from "Marnie" (Prelude)
DR8       -0.29 dB   -11.83 dB      5:04 03-From "Marnie" to "Twisted Nerve"
DR7       -0.26 dB   -10.09 dB      8:36 04-Theme from "Twisted Nerve" (Theme & Variations)
DR9       -0.29 dB   -12.51 dB      9:18 05-Theme from "Psycho" (Prelude)
DR8       -0.26 dB   -11.40 dB      5:21 06-Theme from "Vertigo" (Prelude)
DR9       -0.30 dB   -11.27 dB     10:04 07-Theme from "Vertigo" (Scene d'amour)
DR8       -0.24 dB   -10.17 dB      9:46 08-Theme from "Harry Potter" (Hedwig's Theme)
--------------------------------------------------------------------------------

Number of tracks:  8
Official DR value: DR8

Samplerate:        44100 Hz
Channels:          2
Bits per sample:   24
Bitrate:           1598 kbps
Codec:             FLAC
================================================================================
No seeders - write personal message to M0p94ok. Any questions - support@pro-jazz.com.
Нет сидеров - пишите в личку M0p94ok. Есть вопросы - support@pro-jazz.com
19:07
78
Нет комментариев. Ваш будет первым!