Поиск

2021 Pierrick Pedron - Fifty-Fifty {Gazebo} [24-88.2]

2021 Pierrick Pedron - Fifty-Fifty {Gazebo} [24-88.2]
Стили:
Дата издания диска:
5 марта 2021
Номер по каталогу:
GAZ 198
Битрейт аудио:
lossless
Доп. инфо:

• Формат записи | Источник записи: [TR24][OF]
• Наличие водяных знаков: Нет
• Год издания релиза: 2021
• Лейбл: Gazebo
• Продолжительность: 00:47:34
• Источник: internet
• WEB релиз: ссылка
• Контейнер: FLAC (*.flac)
• Тип рипа: tracks
• Разрядность: 24/88,2
• Формат: PCM
• Количество каналов: 2.0
• Наличие сканов: front

Лог проверки качества
foobar2000 1.4.2 / Dynamic Range Meter 1.1.1
log date: 2021-04-04 08:12:13

--------------------------------------------------------------------------------
Analyzed: Pierrick PГ©dron / Fifty-Fifty
--------------------------------------------------------------------------------

DR         Peak         RMS     Duration Track
--------------------------------------------------------------------------------
DR10      -0.80 dB   -12.73 dB      5:25 01-Bullet T
DR10      -0.77 dB   -12.28 dB      4:57 02-Be Ready
DR13      -0.80 dB   -17.97 dB      7:11 03-Sakura
DR11      -0.79 dB   -12.99 dB      3:10 04-Boom
DR10      -0.87 dB   -13.90 dB      3:59 05-Trevise
DR10      -0.83 dB   -13.18 dB      6:49 06-Unknown 2
DR10      -0.78 dB   -13.87 dB      5:06 07-Origami
DR11      -0.84 dB   -13.36 dB      4:37 08-Mr. Takagi
DR11      -0.86 dB   -14.98 dB      6:21 09-Mizue
--------------------------------------------------------------------------------

Number of tracks:  9
Official DR value: DR11

Samplerate:        88200 Hz
Channels:          2
Bits per sample:   24
Bitrate:           2625 kbps
Codec:             FLAC
================================================================================
No seeders - write personal message to M0p94ok. Any questions - support@pro-jazz.com.
Нет сидеров - пишите в личку M0p94ok. Есть вопросы - support@pro-jazz.com
17:13
54
Нет комментариев. Ваш будет первым!