Поиск

2021 Pierrejean Gaucher - Zappe Satie {Musiclip} [24-44.1]

2021 Pierrejean Gaucher - Zappe Satie {Musiclip} [24-44.1]
Стили:
Дата издания диска:
5 марта 2021
Битрейт аудио:
lossless
Доп. инфо:

• Формат записи | Источник записи: [TR24][OF]
• Наличие водяных знаков: Нет
• Год издания релиза: 2021
• Лейбл: Musiclip
• Продолжительность: 00:52:38
• Источник: internet
• WEB релиз: ссылка
• Контейнер: FLAC (*.flac)
• Тип рипа: tracks
• Разрядность: 24/44,1
• Формат: PCM
• Количество каналов: 2.0
• Наличие сканов: front

Лог проверки качества
foobar2000 1.4.2 / Dynamic Range Meter 1.1.1
log date: 2021-04-04 08:11:27

--------------------------------------------------------------------------------
Analyzed: Pierrejean Gaucher / Zappe satie
--------------------------------------------------------------------------------

DR         Peak         RMS     Duration Track
--------------------------------------------------------------------------------
DR10      -0.02 dB   -12.46 dB      0:25 01-Vaine agitation
DR11      -0.02 dB   -12.62 dB      5:39 02-Satie's blues
DR11      -0.03 dB   -13.70 dB      0:29 03-Ecriture totomatique
DR10      -0.02 dB   -14.41 dB      3:29 04-La croisiГЁre Г§a use / Le dГ©part
DR10      -0.02 dB   -13.06 dB      1:31 05-Circulation fluide
DR11      -0.02 dB   -14.26 dB      3:42 06-Les clowns dansent
DR11      -0.03 dB   -14.12 dB      2:09 07-PesГ©e nocturne
DR11      -0.03 dB   -14.14 dB      4:58 08-GymnopГ©die nВ°8
DR11      -0.03 dB   -14.14 dB      1:08 09-En forme de prune
DR9       -0.01 dB   -12.35 dB      2:55 10-Sad satie
DR9       -0.03 dB   -11.35 dB      1:02 11-Service coupГ©
DR9       -0.02 dB   -12.30 dB      6:22 12-L'office des Г©toiles
DR10      -0.02 dB   -12.28 dB      4:24 13-La croisiГЁre Г§a use / Le retour
DR12      -4.58 dB   -19.57 dB      1:24 14-Berceuse pudique
DR9       -0.70 dB   -12.60 dB      5:15 15-Le binocle et le moustachu
DR11      -0.03 dB   -13.08 dB      1:35 16-Sad franky
DR9       -0.02 dB   -11.83 dB      4:38 17-Danse de travers nВ°4
DR9       -0.02 dB   -12.55 dB      1:34 18-Circulation dense
--------------------------------------------------------------------------------

Number of tracks:  18
Official DR value: DR10

Samplerate:        44100 Hz
Channels:          2
Bits per sample:   24
Bitrate:           1477 kbps
Codec:             FLAC
================================================================================
No seeders - write personal message to M0p94ok. Any questions - support@pro-jazz.com.
Нет сидеров - пишите в личку M0p94ok. Есть вопросы - support@pro-jazz.com
12:34
58
Нет комментариев. Ваш будет первым!