Поиск

2012 Barb Jungr - Stockport to Memphis {Naim} [24-44.1]

2012 Barb Jungr - Stockport to Memphis {Naim} [24-44.1]
Стили:
Место записи:
Underhill Studios, London, UK
Дата издания диска:
22 октября 2012
Издатель (лейбл):
Номер по каталогу:
naimcd179
Носитель:
WEB
Формат:
PCM
Тип рипа:
tracks
Контейнер:
FLAC (*.flac)
Количество каналов:
2.0
Разрядность/ЧД:
24/44,1
Битрейт аудио:
lossless
Время звучания:
00:54:13
Наличие сканов:
только обложка
Страна-производитель диска (релиза):
UK
Релизёр (источник):
M0p94ok
Лог проверки качества
foobar2000 1.6.2 / Dynamic Range Meter 1.1.1
log date: 2021-06-30 11:51:03

--------------------------------------------------------------------------------
Analyzed: Barb Jungr / Stockport to Memphis
--------------------------------------------------------------------------------

DR         Peak         RMS     Duration Track
--------------------------------------------------------------------------------
DR8       -0.15 dB    -9.33 dB      4:02 01-Stockport to Memphis
DR12      -0.16 dB   -16.04 dB      5:09 02-Change Is Gonna Come
DR9       -0.15 dB   -11.31 dB      4:27 03-River
DR10      -0.16 dB   -13.44 dB      4:34 04-Old Man
DR11      -0.16 dB   -13.29 dB      3:34 05-New Life
DR11      -0.82 dB   -14.86 dB      3:59 06-Urban Fox
DR9       -0.14 dB   -11.44 dB      3:19 07-He's Not There
DR11      -0.16 dB   -14.96 dB      5:02 08-Fisherman's Blues
DR13      -0.16 dB   -16.25 dB      4:47 09-Lay Lady Lay
DR11      -0.16 dB   -13.64 dB      3:35 10-Sunset to Break Your Heart
DR10      -0.16 dB   -12.72 dB      3:24 11-Till My Broken Heart Beginsto Mend
DR14      -1.10 dB   -19.27 dB      3:54 12-Lost on the River
DR12      -0.16 dB   -16.07 dB      4:27 13-Way Down in the Hole
--------------------------------------------------------------------------------

Number of tracks:  13
Official DR value: DR11

Samplerate:        44100 Hz
Channels:          2
Bits per sample:   24
Bitrate:           1435 kbps
Codec:             FLAC
================================================================================
No seeders - write personal message to M0p94ok. Any questions - support@pro-jazz.com.
Нет сидеров - пишите в личку M0p94ok. Есть вопросы - support@pro-jazz.com
12:01
60
Нет комментариев. Ваш будет первым!