Поиск

2021 Pat Thomas - Play the Music of Anthony Braxton {Discus Music} [24-48]

2021 Pat Thomas - Play the Music of Anthony Braxton {Discus Music} [24-48]
Дата записи диска:
2006
Место записи:
Konfrontationen Festival Nickelsdorf
Дата издания диска:
5 марта 2021
Битрейт аудио:
lossless
Доп. инфо:

• Формат записи | Источник записи: [TR24][OF]
• Наличие водяных знаков: Нет
• Год издания релиза: 2021
• Лейбл: Discus Music
• Продолжительность: 00:44:14
• Источник: internet
• WEB релиз: ссылка
• Контейнер: FLAC (*.flac)
• Тип рипа: tracks
• Разрядность: 24/48
• Формат: PCM
• Количество каналов: 2.0
• Наличие сканов: front

Лог проверки качества
foobar2000 1.4.2 / Dynamic Range Meter 1.1.1
log date: 2021-04-04 08:10:52

--------------------------------------------------------------------------------
Analyzed: Pat Thomas / Play the Music of Anthony Braxton
--------------------------------------------------------------------------------

DR         Peak         RMS     Duration Track
--------------------------------------------------------------------------------
DR10      -0.11 dB   -11.33 dB      6:58 01-Composition 40b
DR10      -0.11 dB   -11.54 dB      5:58 02-Composition 6c
DR10      -0.11 dB   -11.04 dB      5:52 03-Composition 115
DR10      -0.11 dB   -12.27 dB      8:40 04-Composition 23b
DR10      -0.11 dB   -12.45 dB      8:29 05-Composition 6i
DR9       -0.11 dB   -11.11 dB      8:19 06-Composition 23g
--------------------------------------------------------------------------------

Number of tracks:  6
Official DR value: DR10

Samplerate:        48000 Hz
Channels:          2
Bits per sample:   24
Bitrate:           1796 kbps
Codec:             FLAC
================================================================================
No seeders - write personal message to M0p94ok. Any questions - support@pro-jazz.com.
Нет сидеров - пишите в личку M0p94ok. Есть вопросы - support@pro-jazz.com
11:29
95
Нет комментариев. Ваш будет первым!