Поиск

2021 Michel Portal - MP85 {Label Bleu} [24-44.1]

2021 Michel Portal - MP85 {Label Bleu} [24-44.1]
Место записи:
Studio Gil Evans, Maison De La Culture D'Amiens, France
Дата издания диска:
5 марта 2021
Номер по каталогу:
LBLC6736
Битрейт аудио:
lossless
Доп. инфо:

• Формат записи | Источник записи: [TR24][OF]
• Наличие водяных знаков: Нет
• Год издания релиза: 2021
• Лейбл: Label Bleu
• Продолжительность: 00:49:54
• Источник: internet
• WEB релиз: ссылка
• Контейнер: FLAC (*.flac)
• Тип рипа: tracks
• Разрядность: 24/44,1
• Формат: PCM
• Количество каналов: 2.0
• Наличие сканов: front

Лог проверки качества
foobar2000 1.4.2 / Dynamic Range Meter 1.1.1
log date: 2021-04-04 08:07:39

--------------------------------------------------------------------------------
Analyzed: Michel Portal / MP85
--------------------------------------------------------------------------------

DR         Peak         RMS     Duration Track
--------------------------------------------------------------------------------
DR7       -0.01 dB    -8.78 dB      4:15 01-African Wind
DR6       -0.01 dB    -8.90 dB      6:31 02-Full Half Moon
DR13      -0.02 dB   -15.90 dB      4:13 03-Armenia
DR7       -0.01 dB    -8.15 dB      4:58 04-Jazzoulie
DR7       -0.01 dB    -9.13 dB      5:19 05-Mino-Miro
DR7       -0.01 dB    -8.50 dB      4:06 06-Split the Difference
DR9       -0.01 dB   -12.30 dB      5:21 07-Desertown
DR5       -0.01 dB    -7.16 dB      5:14 08-No Hay
DR7       -0.01 dB    -8.96 dB      5:43 09-Mister Pharmacy
DR8       -0.50 dB   -12.71 dB      4:14 10-Euskal Kantua
--------------------------------------------------------------------------------

Number of tracks:  10
Official DR value: DR7

Samplerate:        44100 Hz
Channels:          2
Bits per sample:   24
Bitrate:           1358 kbps
Codec:             FLAC
================================================================================
No seeders - write personal message to M0p94ok. Any questions - support@pro-jazz.com.
Нет сидеров - пишите в личку M0p94ok. Есть вопросы - support@pro-jazz.com
12:23
66
Нет комментариев. Ваш будет первым!