Поиск

1982 Adelhard Roidinger - Schattseite (2019) {ECM} [24-96]

1982 Adelhard Roidinger - Schattseite (2019) {ECM} [24-96]
Дата записи диска:
1 ноября 1981
Место записи:
Tonstudio Bauer, Ludwigsburg, Germany
Дата издания диска:
1 апреля 1982
Издатель (лейбл):
Номер по каталогу:
ECM 1221
Носитель:
WEB
Формат:
PCM
Тип рипа:
tracks
Контейнер:
FLAC (*.flac)
Количество каналов:
2.0
Разрядность/ЧД:
24/96
Битрейт аудио:
lossless
Время звучания:
00:44:46
Наличие сканов:
только обложка
Страна-производитель диска (релиза):
Germany
Релизёр (источник):
M0p94ok
Лог проверки качества
foobar2000 1.6.2 / Dynamic Range Meter 1.1.1
log date: 2021-06-29 09:37:02

--------------------------------------------------------------------------------
Analyzed: Adelhard Roidinger / Schattseite
--------------------------------------------------------------------------------

DR         Peak         RMS     Duration Track
--------------------------------------------------------------------------------
DR13      -0.70 dB   -17.29 dB      9:25 01-Fü Pfü
DR12      -3.77 dB   -18.72 dB      4:27 02-Lufti
DR12      -1.19 dB   -16.35 dB      9:19 03-Loveland
DR13      -0.94 dB   -18.84 dB      7:30 04-Stress
DR11      -1.37 dB   -16.38 dB      4:09 05-Ania
DR12      -1.07 dB   -18.37 dB      9:56 06-When Earth Becomes Desert
--------------------------------------------------------------------------------

Number of tracks:  6
Official DR value: DR12

Samplerate:        96000 Hz
Channels:          2
Bits per sample:   24
Bitrate:           2888 kbps
Codec:             FLAC
================================================================================
No seeders - write personal message to M0p94ok. Any questions - support@pro-jazz.com.
Нет сидеров - пишите в личку M0p94ok. Есть вопросы - support@pro-jazz.com
09:59
81
Нет комментариев. Ваш будет первым!