Поиск

2021 Mark Solborg - Angels {ILK Music} [24-48]

2021 Mark Solborg - Angels {ILK Music} [24-48]
Стили:
Дата издания диска:
26 марта 2021
Битрейт аудио:
lossless
Доп. инфо:

• Формат записи | Источник записи: [TR24][OF]
• Наличие водяных знаков: Нет
• Год издания релиза: 2021
• Лейбл: ILK Music
• Продолжительность: 00:42:50
• Источник: internet
• WEB релиз: ссылка
• Контейнер: FLAC (*.flac)
• Тип рипа: tracks
• Разрядность: 24/48
• Формат: PCM
• Количество каналов: 2.0
• Наличие сканов: front

Лог проверки качества
foobar2000 1.4.2 / Dynamic Range Meter 1.1.1
log date: 2021-04-04 08:06:39

--------------------------------------------------------------------------------
Analyzed: Mark Solborg / Angels
--------------------------------------------------------------------------------

DR         Peak         RMS     Duration Track
--------------------------------------------------------------------------------
DR12      -0.20 dB   -16.05 dB      5:05 01-Den 7. Dag
DR10      -0.18 dB   -13.42 dB      5:11 02-Rigors Remain
DR11      -0.20 dB   -14.40 dB      6:08 03-Early Morning Bells
DR7       -0.17 dB   -10.29 dB      5:18 04-Mr. y OSO
DR10      -0.19 dB   -13.79 dB      4:33 05-Another bastard
DR11      -0.19 dB   -14.63 dB      5:36 06-Angels
DR10      -0.19 dB   -12.22 dB      2:36 07-Crepuscule With Nellie
DR9       -0.19 dB   -11.53 dB      3:46 08-Longsome
DR13      -0.19 dB   -16.15 dB      4:38 09-Harvest Breed
--------------------------------------------------------------------------------

Number of tracks:  9
Official DR value: DR10

Samplerate:        48000 Hz
Channels:          2
Bits per sample:   24
Bitrate:           1432 kbps
Codec:             FLAC
================================================================================
No seeders - write personal message to M0p94ok. Any questions - support@pro-jazz.com.
Нет сидеров - пишите в личку M0p94ok. Есть вопросы - support@pro-jazz.com
19:59
98
Нет комментариев. Ваш будет первым!