Поиск

2015 Marilyn Scott - Every Time We Say Goodbye {Venus} [DSD64 ISO]

2015 Marilyn Scott - Every Time We Say Goodbye {Venus} [DSD64 ISO]
Стили:
Дата записи диска:
27 августа, 28 августа и 29 августа 2007
Место записи:
The Studio, New York City, NY, USA
Дата издания диска:
1 апреля 2015
Издатель (лейбл):
Номер по каталогу:
VHGD-119
Битрейт аудио:
lossless
Доп. инфо:

Формат записи/Источник записи: [SACD-R][OF]
Наличие водяных знаков: Нет
Год издания/переиздания диска: 2015
Жанр: Vocal Jazz
Издатель (лейбл): Venus Records [VHGD-119]
Продолжительность: 00:46:31
Наличие сканов в содержимом раздачи: Только обложка альбома

Контейнер: ISO (*.iso)
Тип рипа: image
Разрядность: 64(2,8 MHz/1 Bit)
Формат: DSD
Количество каналов: 2.0

Источник (релизер): jazzy pic

Лог проверки качества
foobar2000 1.6.4 / Dynamic Range Meter 1.1.1
log date: 2021-03-15 22:06:56

--------------------------------------------------------------------------------
Analyzed: MARILYN SCOTT / Everytime We Say Goodbye
--------------------------------------------------------------------------------

DR         Peak         RMS     Duration Track
--------------------------------------------------------------------------------
DR7       -4.37 dB   -12.89 dB      5:52 01-Every Time We Say Goodbye
DR7       -4.47 dB   -12.15 dB      4:01 02-I Got Lost In His Arms
DR7       -4.74 dB   -13.89 dB      5:31 03-Lonely Town
DR6       -4.28 dB   -12.02 dB      4:25 04-Detour Ahead
DR7       -4.45 dB   -12.73 dB      4:22 05-Do You Know The Way To San Jose?
DR7       -4.55 dB   -13.86 dB      5:06 06-Autumn In New York
DR6       -4.13 dB   -12.00 dB      4:22 07-I Love Paris
DR7       -4.45 dB   -12.94 dB      5:00 08-Cry Me A River
DR6       -4.37 dB   -11.48 dB      3:16 09-Caravan
DR7       -4.16 dB   -13.19 dB      4:37 10-Somewhere
--------------------------------------------------------------------------------

Number of tracks:  10
Official DR value: DR7

Samplerate:        2822400 Hz / PCM Samplerate: 88200 Hz
Channels:          2
Bits per sample:   1
Bitrate:           5645 kbps
Codec:             DSD64
================================================================================
No seeders - write personal message to M0p94ok. Any questions - support@pro-jazz.com.
Нет сидеров - пишите в личку M0p94ok. Есть вопросы - support@pro-jazz.com
19:18
146
Нет комментариев. Ваш будет первым!