Вы используете незарегистрированную версию компонента "Вкладки"!

Поиск

2021 Greg Abate - Magic Dance: The Music of Kenny Barron {Whaling City Sound} [24-44.1]

2021 Greg Abate - Magic Dance: The Music of Kenny Barron {Whaling City Sound} [24-44.1]
Стили:
Дата издания диска:
26 апреля 2021
Издатель (лейбл):
Битрейт аудио:
lossless
Доп. инфо:

• Формат записи | Источник записи: [TR24][OF]
• Наличие водяных знаков: Нет
• Год издания релиза: 2021
• Продолжительность: 01:27:49
• Источник: internet
• WEB релиз: ссылка
• Контейнер: FLAC (*.flac)
• Тип рипа: tracks
• Разрядность: 24/44,1
• Формат: PCM
• Количество каналов: 2.0
• Наличие сканов: front + booklet

Лог проверки качества
foobar2000 1.4.2 / Dynamic Range Meter 1.1.1
log date: 2021-04-04 08:00:10

--------------------------------------------------------------------------------
Analyzed: Greg Abate / Magic Dance: The Music of Kenny Barron
--------------------------------------------------------------------------------

DR         Peak         RMS     Duration Track
--------------------------------------------------------------------------------
DR9       -0.30 dB   -10.48 dB      5:18 01-Sunshower
DR10      -0.30 dB   -12.94 dB      6:10 02-Cook's Bay
DR9       -0.30 dB   -10.49 dB      7:54 03-Golden Lotus
DR9       -0.30 dB   -12.16 dB      7:20 04-Innocence
DR9       -0.30 dB   -11.47 dB      9:00 05-Water Lily
DR9       -0.30 dB   -12.66 dB      7:38 06-Sonia Braga
DR10      -0.30 dB   -12.13 dB      3:47 07-Bud Like
DR9       -0.30 dB   -11.14 dB      6:15 08-Lemuria
DR9       -0.30 dB   -12.02 dB      4:52 09-Concentric Circles
DR9       -0.30 dB   -12.18 dB      8:29 10-Rain
DR8       -0.30 dB   -10.52 dB      5:26 11-Voyage
DR9       -0.30 dB   -11.60 dB      5:35 12-Magic Dance
DR9       -0.30 dB   -11.67 dB      4:32 13-Song for Abdullah
DR10      -0.10 dB   -11.96 dB      5:35 14-And Then Again
--------------------------------------------------------------------------------

Number of tracks:  14
Official DR value: DR9

Samplerate:        44100 Hz
Channels:          2
Bits per sample:   24
Bitrate:           1646 kbps
Codec:             FLAC
================================================================================
Any questions - support@pro-jazz.com. Есть вопросы - support@pro-jazz.com
17:29
129
Нет комментариев. Ваш будет первым!