Поиск

2019 A Northern Code - Boundaries {Øra Fonogram} [24-44.1]

2019 A Northern Code - Boundaries {Øra Fonogram} [24-44.1]
Дата записи диска:
1 ноября - 30 ноября 2017
Место записи:
Studio A, The Grieg Academy, Bergen, Norway
Дата издания диска:
8 ноября 2019
Носитель:
WEB
Формат:
PCM
Тип рипа:
tracks
Контейнер:
FLAC (*.flac)
Количество каналов:
2.0
Разрядность/ЧД:
24/44,1
Битрейт аудио:
lossless
Время звучания:
00:40:34
Наличие сканов:
только обложка
Страна-производитель диска (релиза):
Norway
Релизёр (источник):
M0p94ok
Лог проверки качества
foobar2000 1.6.2 / Dynamic Range Meter 1.1.1
log date: 2021-06-25 17:35:12

--------------------------------------------------------------------------------
Analyzed: A Northern Code / Boundaries
--------------------------------------------------------------------------------

DR         Peak         RMS     Duration Track
--------------------------------------------------------------------------------
DR8       -1.21 dB   -12.81 dB      3:41 01-Slow Motion
DR8       -1.20 dB   -12.91 dB      6:02 02-Beslan
DR7       -1.21 dB   -11.55 dB      3:56 03-Bifilomania
DR9       -1.21 dB   -13.72 dB      3:57 04-Every Cell Of Your Body
DR10      -1.21 dB   -15.01 dB      2:26 05-Existential Future
DR8       -1.21 dB   -11.81 dB      5:25 06-Red Street
DR11      -1.21 dB   -16.15 dB      4:44 07-Meditative
DR7       -1.20 dB   -12.21 dB      6:12 08-Someday My Prince Will Come
DR7       -1.20 dB   -13.26 dB      4:12 09-Soundscape
--------------------------------------------------------------------------------

Number of tracks:  9
Official DR value: DR8

Samplerate:        44100 Hz
Channels:          2
Bits per sample:   24
Bitrate:           1379 kbps
Codec:             FLAC
================================================================================
No seeders - write personal message to M0p94ok. Any questions - support@pro-jazz.com.
Нет сидеров - пишите в личку M0p94ok. Есть вопросы - support@pro-jazz.com
17:40
87
Нет комментариев. Ваш будет первым!