Вы используете незарегистрированную версию компонента "Вкладки"!

Поиск

2020 Fred Escoffier & Palm Unit - Figures {Cristal} [24-48]

2020 Fred Escoffier & Palm Unit - Figures {Cristal} [24-48]
Стили:
Дата издания диска:
3 декабря 2020
Битрейт аудио:
lossless
Доп. инфо:

• Формат записи | Источник записи: [TR24][OF]
• Наличие водяных знаков: Нет
• Год издания релиза: 2021
• Лейбл: Cristal records
• Продолжительность: 00:36:09
• Источник: internet
• WEB релиз: ссылка
• Контейнер: FLAC (*.flac)
• Тип рипа: tracks
• Разрядность: 24/48
• Формат: PCM
• Количество каналов: 2.0
• Наличие сканов: front

Лог проверки качества
foobar2000 1.4.2 / Dynamic Range Meter 1.1.1
log date: 2021-04-04 07:58:11

--------------------------------------------------------------------------------
Analyzed: Fred Escoffier / Figures
--------------------------------------------------------------------------------

DR         Peak         RMS     Duration Track
--------------------------------------------------------------------------------
DR7       -0.01 dB    -9.66 dB      6:33 01-Marie Isa - Fig. 08
DR6       -0.01 dB    -7.51 dB      5:08 02-Black Smith - Fig. 14
DR7       -0.01 dB    -9.08 dB      6:22 03-Appolo Theater - Fig.18
DR5       -0.01 dB    -8.41 dB      5:16 04-Appolonia 11 - Fig. 17
DR6       -0.01 dB    -8.07 dB      4:46 05-Rogers West - Fig. 19
DR6       -0.01 dB    -9.00 dB      5:08 06-03 / 03 / 1972 - Fig. 15
DR10      -0.01 dB   -13.74 dB      2:56 07-Over the Rainbow
--------------------------------------------------------------------------------

Number of tracks:  7
Official DR value: DR7

Samplerate:        48000 Hz
Channels:          2
Bits per sample:   24
Bitrate:           1311 kbps
Codec:             FLAC
================================================================================
Any questions - support@pro-jazz.com. Есть вопросы - support@pro-jazz.com
09:55
75
Нет комментариев. Ваш будет первым!