Вы используете незарегистрированную версию компонента "Вкладки"!

Поиск

2021 Don Kapot - Hooligan {W.E.R.F.} [24-96]

2021 Don Kapot - Hooligan {W.E.R.F.} [24-96]
Стили:
Дата записи диска:
1 ноября 2019
Место записи:
Studio Grez (BXL)
Дата издания диска:
26 марта 2021
Битрейт аудио:
lossless
Доп. инфо:

• Формат записи | Источник записи: [TR24][OF]
• Наличие водяных знаков: Нет
• Год издания релиза: 2021
• Лейбл: W.E.R.F.
• Продолжительность: 00:42:03
• Источник: internet
• WEB релиз: ссылка
• Контейнер: FLAC (*.flac)
• Тип рипа: tracks
• Разрядность: 24/96
• Формат: PCM
• Количество каналов: 2.0
• Наличие сканов: front

Лог проверки качества
foobar2000 1.4.2 / Dynamic Range Meter 1.1.1
log date: 2021-04-04 07:56:11

--------------------------------------------------------------------------------
Analyzed: Don Kapot / Hooligan
--------------------------------------------------------------------------------

DR         Peak         RMS     Duration Track
--------------------------------------------------------------------------------
DR7       -0.19 dB    -8.14 dB      5:03 01-Chinese Cows
DR8       -0.19 dB    -9.67 dB      6:04 02-Pentatonitis B
DR10      -0.19 dB   -11.18 dB      9:50 03-Whononogono
DR8       -0.19 dB    -9.75 dB      6:09 04-TV
DR8       -0.19 dB   -11.60 dB      4:02 05-Softly As In A Morning Pancake
DR8       -0.19 dB    -9.98 dB      6:12 06-Hooligan
DR8       -0.19 dB   -10.56 dB      4:46 07-Kop Zonder Kip
--------------------------------------------------------------------------------

Number of tracks:  7
Official DR value: DR8

Samplerate:        96000 Hz
Channels:          2
Bits per sample:   24
Bitrate:           2883 kbps
Codec:             FLAC
================================================================================
Any questions - support@pro-jazz.com. Есть вопросы - support@pro-jazz.com
21:41
113
Нет комментариев. Ваш будет первым!