Поиск

2021 Tristan Mélia - Mistake Romance {jazz family} [24-96]

2021 Tristan Mélia - Mistake Romance {jazz family} [24-96]
Дата издания диска:
26 марта 2021
Издатель (лейбл):
Битрейт аудио:
lossless
Доп. инфо:

• Формат записи | Источник записи: [TR24][OF]
• Наличие водяных знаков: Нет
• Год издания релиза: 2021
• Продолжительность: 00:47:44
• Источник: internet
• WEB релиз: ссылка
• Контейнер: FLAC (*.flac)
• Тип рипа: tracks
• Разрядность: 24/96
• Формат: PCM
• Количество каналов: 2.0
• Наличие сканов: front

Лог проверки качества
foobar2000 1.4.2 / Dynamic Range Meter 1.1.1
log date: 2021-04-04 08:20:16

--------------------------------------------------------------------------------
Analyzed: Tristan MГ©lia / Mistake Romance
--------------------------------------------------------------------------------

DR         Peak         RMS     Duration Track
--------------------------------------------------------------------------------
DR8       -1.00 dB   -12.62 dB      5:07 01-The Essential
DR7       -1.60 dB   -11.91 dB      3:46 02-Mistake Romance
DR6       -1.00 dB   -10.60 dB      4:15 03-Only My Heart
DR8       -1.10 dB   -11.82 dB      4:19 04-Soul Eyes
DR7       -1.00 dB   -10.68 dB      1:57 05-Ready to Go
DR8       -1.00 dB   -12.22 dB      3:44 06-Smile
DR11      -1.00 dB   -16.10 dB      2:41 07-Enfance
DR8       -1.00 dB   -10.75 dB      3:50 08-500 Miles
DR8       -1.00 dB   -12.03 dB      3:56 09-Someday My Prince Will Come
DR9       -1.00 dB   -12.78 dB      3:33 10-My Old Flame
DR8       -1.00 dB   -12.80 dB      5:53 11-The Nearness of You
DR8       -1.10 dB   -13.40 dB      4:44 12-Piano des souvenirs
--------------------------------------------------------------------------------

Number of tracks:  12
Official DR value: DR8

Samplerate:        96000 Hz
Channels:          2
Bits per sample:   24
Bitrate:           2533 kbps
Codec:             FLAC
================================================================================
No seeders - write personal message to M0p94ok. Any questions - support@pro-jazz.com.
Нет сидеров - пишите в личку M0p94ok. Есть вопросы - support@pro-jazz.com
23:14
60
Нет комментариев. Ваш будет первым!