Поиск

2018 Lee Konitz & Dan Tepfer - Decade {Verve} [24-96]

2018 Lee Konitz & Dan Tepfer - Decade {Verve} [24-96]
Стили:
Издатель (лейбл):
Состав:

Формат записи/Источник записи: [TR24][OF]
Наличие водяных знаков: Нет
Год издания/переиздания диска: 2018
Продолжительность: 46:25
Наличие сканов в содержимом раздачи: Буклет PDF
Контейнер: FLAC (*.flac)
Тип рипа: tracks
Разрядность: 24/96
Формат: PCM
Количество каналов: 2.0 Продолжительность: 46:25 Источник: qobuz.com

Треклист:
01. Thrill (2:33)
02. 9/11 Suite, Part I (3:49)
03. 9/11 Suite, Part II (2:39)
04. 9/11 Suite, Part III (4:26)
05. Pulsing Green (1:34)
06. Alter Ego (3:11)
07. Through The Tunnel (6:03)
08. Egos Alter (1:08)
09. Rebounds (4:25)
10. A Place We Know (2:16)
11. Pulsing Orange (1:39)
12. Whirlpool (1:59)
13. Ceaseless (2:42)
14. Eager Altos (0:58)
15. Body & Soul (7:01)

 
Лог проверки качества
foobar2000 1.3.9 / Dynamic Range Meter 1.1.1
log date: 2018-07-06 18:39:46
--------------------------------------------------------------------------------
Analyzed: Lee Konitz & Dan Tepfer / Decade
--------------------------------------------------------------------------------
DR         Peak         RMS     Duration Track
--------------------------------------------------------------------------------
DR12      -1.16 dB   -16.47 dB      2:33 01-Thrill
DR12      -0.92 dB   -17.73 dB      3:49 02-9/11 Suite, Part I
DR13      -1.20 dB   -17.79 dB      2:39 03-9/11 Suite, Part II
DR13      -0.41 dB   -17.87 dB      4:26 04-9/11 Suite, Part III
DR13      -0.36 dB   -18.25 dB      1:34 05-Pulsing Green
DR12      -1.64 dB   -17.06 dB      3:11 06-Alter Ego
DR13      -0.42 dB   -17.16 dB      6:03 07-Through The Tunnel
DR13      -0.41 dB   -17.51 dB      1:08 08-Egos Alter
DR13      -0.41 dB   -17.17 dB      4:25 09-Rebounds
DR12      -1.79 dB   -17.37 dB      2:16 10-A Place We Know
DR13      -4.42 dB   -22.38 dB      1:39 11-Pulsing Orange
DR13      -0.55 dB   -16.81 dB      1:59 12-Whirlpool
DR12      -0.56 dB   -17.39 dB      2:42 13-Ceaseless
DR10      -2.78 dB   -17.67 dB      0:58 14-Eager Altos
DR13      -0.31 dB   -16.69 dB      7:01 15-Body & Soul
--------------------------------------------------------------------------------
Number of tracks:  15
Official DR value: DR13
Samplerate:        96000 Hz
Channels:          2
Bits per sample:   24
Bitrate:           2623 kbps
Codec:             FLAC
================================================================================

 

Скачивание доступно после регистрации!!
Приватный:
Нет (DHT включён)
Размер:
854.69 Мб (896,209,519 байт) » файлов: 19
Участники:
6 раздают, 0 качают (6 участников всего)
Внешние участники:
7 раздают, 2 качают (9 участников всего) [ Обновить ]
13:32
687
RSS
Нет комментариев. Ваш будет первым!