Поиск

1959 Arnett Cobb - Party Time (2016) {Analogue Productions} [DSD64 2,8-1]

1959 Arnett Cobb - Party Time (2016) {Analogue Productions} [DSD64 2,8-1]
Издатель (лейбл):

Треклист:

Формат записи/Источник записи: [SACD-R][OF]
Наличие водяных знаков: Нет
Год издания/переиздания диска: 1959/2016
Продолжительность: 00:37:14
Наличие сканов в содержимом раздачи: Только обложка альбома
Контейнер: ISO (*.iso)
Тип рипа: image
Разрядность: 64 (2,8 MHz/1 Bit)
Формат: DSD
Количество каналов: 2.0
Источник (релизер): elusivedisc (jazzyman (PS³SACD))

Треклист:
01. When My Dream Boat Comes Home
02. Lonesome Road
03. Blues In The Closet
04. Party Time
05. Flying Home
06. Slow Poke
07. Coctails For Two

 
Лог DR
foobar2000 1.3.13 / Замер динамического диапазона (DR) 1.1.1
Дата отчёта:  2018-07-06 23:33:04
--------------------------------------------------------------------------------
Анализ:   Arnett Cobb / Party Time
--------------------------------------------------------------------------------
DR         Пики         RMS           Продолжительность трека
--------------------------------------------------------------------------------
DR13      -6.17 дБ   -22.67 дБ      5:46 01-When My Dreamboat Comes Home
DR13      -6.53 дБ   -22.03 дБ      3:55 02-Lonesome Road
DR15      -5.60 дБ   -23.39 дБ      4:18 03-Blues in the Closet
DR13      -6.03 дБ   -22.40 дБ      5:53 04-Party Time
DR13      -6.24 дБ   -21.07 дБ      5:13 05-Flying Home
DR14      -5.20 дБ   -22.84 дБ      6:51 06-The Slow Poke
DR13      -6.60 дБ   -21.91 дБ      5:18 07-Cocktails for Two
--------------------------------------------------------------------------------
Количество треков: 7
Реальные значения DR: DR13
Частота:   2822400 Гц / Частота PCM: 352800 Гц
Каналов:   2
Разрядность:   24
Битрейт:   5645 кбит/с
Кодек:   DSD64
================================================================================
Приватный:
Нет (DHT включён)
Размер:
1.51 Гб (1,617,212,781 байт) » файлов: 4
Участники:
0 раздают, 0 качают (0 участников всего)
Внешние участники:
3 раздают, 1 качают (4 участников всего) [ Обновить ]
Никого нет на раздаче - пишите личное сообщение M0p94ok
No seeders - write personal message to M0p94ok
13:45
864
Нет комментариев. Ваш будет первым!