Поиск

2018 Melvin Lee Davis - Genre: Music Chapter II (Joni) {Bassment} [24-48]

2018 Melvin Lee Davis - Genre: Music Chapter II (Joni) {Bassment} [24-48]
Стили:
Издатель (лейбл):

Формат записи/Источник записи: [TR24][OF]
Наличие водяных знаков: Нет
Год издания/переиздания диска: 2018
Продолжительность: 01:23:35
Наличие сканов в содержимом раздачи: Только обложка альбома Контейнер: FLAC (*.flac)
Тип рипа: tracks
Разрядность: 24/48
Формат: PCM
Количество каналов: 2.0
Источник: hdtracks.com

Треклист:
01. Remembrance (2:31)
02. Natty Stick (8:30)
03. Lyle Mays (6:37)
04. The Perfect Kind Of Fall (4:32)
05. Edith And The Kingpin (4:44)
06. The Hissing Of Summer Lawns (5:23)
07. Attack Of The Man From Mars (5:49)
08. Hejira (7:12)
09. Refuge Of The Road (6:37)
10. Ronald B Jr Steps Ahead (8:58)
11. A Remark You Made (6:48)
12. Sunset (4:51)
13. My Light (4:57)
14. Autumn (A Song For Daniella) (6:05)

 
Лог проверки качества
foobar2000 1.3.9 / Dynamic Range Meter 1.1.1
log date: 2018-07-06 12:43:36
--------------------------------------------------------------------------------
Analyzed: Melvin Lee Davis / Genre: Music Chapter II (Joni)
--------------------------------------------------------------------------------
DR         Peak         RMS     Duration Track
--------------------------------------------------------------------------------
DR6        0.00 dB    -8.78 dB      2:31 01-Remembrance
DR7        0.00 dB    -9.01 dB      8:30 02-Natty Stick
DR6        0.00 dB    -7.91 dB      6:37 03-Lyle Mays
DR7       -0.20 dB   -10.04 dB      4:32 04-The Perfect Kind Of Fall
DR7        0.00 dB    -8.74 dB      4:44 05-Edith And The Kingpin
DR6        0.00 dB    -7.70 dB      5:23 06-The Hissing Of Summer Lawns
DR6        0.00 dB    -8.52 dB      5:49 07-Attack Of The Man From Mars
DR5       -0.11 dB    -7.19 dB      7:12 08-Hejira
DR7        0.00 dB   -10.56 dB      8:58 10-Ronald B Jr Steps Ahead
DR12       0.00 dB   -14.67 dB      6:48 11-A Remark You Made
DR7        0.00 dB    -9.27 dB      4:51 12-Sunset
DR9        0.00 dB   -12.54 dB      4:57 13-My Light
DR6        0.00 dB    -9.03 dB      6:05 14-Autumn (A Song For Daniella)
--------------------------------------------------------------------------------
Number of tracks:  13
Official DR value: DR7
Samplerate:        48000 Hz
Channels:          2
Bits per sample:   24
Bitrate:           1561 kbps
Codec:             FLAC
================================================================================
********************************************************************************************************
foobar2000 1.3.9 / Dynamic Range Meter 1.1.1
log date: 2018-07-06 12:43:17
--------------------------------------------------------------------------------
Statistics for: 09-Refuge Of The Road
Number of samples: 17501720
Duration: 6:37
--------------------------------------------------------------------------------
                 Left              Right
Peak Value:     -0.11 dB   ---     -0.11 dB
Avg RMS:        -9.14 dB   ---     -9.25 dB
DR channel:      7.25 dB   ---      7.24 dB
--------------------------------------------------------------------------------
Official DR Value: DR7
Samplerate:        44100 Hz
Channels:          2
Bits per sample:   24
Bitrate:           1610 kbps
Codec:             FLAC
================================================================================

 

Скачивание доступно после регистрации!!
Приватный:
Нет (DHT включён)
Размер:
1019.06 Мб (1,068,560,070 байт) » файлов: 18
Участники:
3 раздают, 0 качают (3 участников всего)
Внешние участники:
5 раздают, 1 качают (6 участников всего) [ Обновить ]
11:34
690
RSS
Нет комментариев. Ваш будет первым!