Поиск

2018 Kirk Knuffke - Witness {SteepleChase SCCD 31859} [24-44,1]

2018 Kirk Knuffke - Witness {SteepleChase SCCD 31859} [24-44,1]
Дата записи диска:
декабрь 2017
Издатель (лейбл):
Номер по каталогу:
SCCD 31859
Носитель:
WEB
Формат:
PCM
Тип рипа:
tracks
Контейнер:
FLAC (*.flac)
Количество каналов:
2.0
Разрядность/ЧД:
24/44,1
Время звучания:
01:06:19
Наличие сканов:
только обложка
Наличие водяных знаков:
нет
Релизёр (источник):
M0p94ok
Треклист:

01. Witness  06:33
02. Lush Life  09:29
03. Ride on, King Jesus  04:58
04. The Satellites Are Spinning  04:15
05. Iago's Credo  05:53
06. Subway  02:33
07. Aria Mustafa  06:21
08. Charade  07:50
09. Storm  03:39
10. The Voice  04:50
11. Questo Amor  05:09
12. A City Called Heaven  04:49

Лог проверки качества
foobar2000 1.4.3 / Dynamic Range Meter 1.1.1
log date: 2020-02-16 22:25:07

--------------------------------------------------------------------------------
Analyzed: Kirk Knuffke / Witness
--------------------------------------------------------------------------------

DR         Peak         RMS     Duration Track
--------------------------------------------------------------------------------
DR12      -0.47 dB   -17.16 dB      6:34 01-Witness
DR13      -0.49 dB   -18.59 dB      9:30 02-Lush Life
DR8       -0.45 dB   -13.29 dB      4:58 03-Ride On, King Jesus
DR10      -0.47 dB   -15.49 dB      4:15 04-The Satellites Are Spinning
DR12      -0.46 dB   -17.27 dB      5:54 05-Iago's Credo
DR10      -0.47 dB   -15.00 dB      2:34 06-Subway
DR14      -0.48 dB   -18.62 dB      6:21 07-Aria Mustafa
DR15      -1.66 dB   -22.83 dB      7:50 08-Charade
DR14      -0.49 dB   -20.32 dB      3:40 09-Storm
DR13      -0.49 dB   -18.55 dB      4:51 10-The Voice
DR13      -0.49 dB   -18.61 dB      5:10 11-Questo Amor
DR12      -0.45 dB   -16.49 dB      4:50 12-A City Called Heaven
--------------------------------------------------------------------------------

Number of tracks:  12
Official DR value: DR12

Samplerate:        44100 Hz
Channels:          2
Bits per sample:   24
Bitrate:           1163 kbps
Codec:             FLAC
================================================================================
Приватный:
Нет (DHT включён)
Размер:
557.72 Мб (584,808,528 байт) » файлов: 14
Участники:
5 раздают, 0 качают (5 участников всего)
Внешние участники:
--- [ Обновить ]
Есть вопросы - пишите личное сообщение пользователю M0p94ok.
23:41
30
Нет комментариев. Ваш будет первым!