Поиск

1962 Frank Sinatra - Sinatra & Strings (2019) {RevOla} [24-44,1]

1962 Frank Sinatra - Sinatra & Strings (2019) {RevOla} [24-44,1]
Треклист:

01. I Hadn't Anyone Till You (3:44)
02. Night And Day (3:39)
03. Misty (2:42)
04. Stardust (2:49)
05. Come Rain Or Come Shine (4:07)
06. It Might As Well Be Spring (3:16)
07. Prisoner Of Love (3:52)
08. That's All! (3:22)
09. All Or Nothing At All (3:44)
10. Yesterdays (3:46)

Доп. инфо:

Формат записи/Источник записи: [TR24][OF]
Наличие водяных знаков: Нет
Издание: Remastered
Год издания/переиздания диска: 1962/2019
Издатель (лейбл): RevOla Records
Продолжительность: 35:02
Наличие сканов в содержимом раздачи: Только обложка альбома

Контейнер: FLAC (*.flac)
Тип рипа: tracks
Разрядность: 24/44,1
Формат: PCM
Количество каналов: 2.0

Источник: qobuz.com

Лог проверки качества
foobar2000 1.3.9 / Dynamic Range Meter 1.1.1
log date: 2020-01-06 16:11:49

--------------------------------------------------------------------------------
Analyzed: Frank Sinatra / Sinatra & Strings
--------------------------------------------------------------------------------

DR         Peak         RMS     Duration Track
--------------------------------------------------------------------------------
DR13      -2.34 dB   -19.07 dB      3:44 01-I Hadn't Anyone Till You
DR12      -0.55 dB   -19.53 dB      3:39 02-Night And Day
DR11      -4.04 dB   -19.73 dB      2:42 03-Misty
DR13      -1.34 dB   -19.98 dB      2:49 04-Stardust
DR12      -1.12 dB   -17.21 dB      4:07 05-Come Rain Or Come Shine
DR12      -5.10 dB   -21.56 dB      3:16 06-It Might As Well Be Spring
DR13      -2.33 dB   -19.98 dB      3:52 07-Prisoner Of Love
DR12      -5.00 dB   -21.54 dB      3:22 08-That's All!
DR12      -0.96 dB   -19.53 dB      3:44 09-All Or Nothing At All
DR11      -2.00 dB   -18.05 dB      3:46 10-Yesterdays
--------------------------------------------------------------------------------

Number of tracks:  10
Official DR value: DR12

Samplerate:        44100 Hz
Channels:          2
Bits per sample:   24
Bitrate:           1395 kbps
Codec:             FLAC
================================================================================
Приватный:
Нет (DHT включён)
Размер:
353.36 Мб (370,524,603 байт) » файлов: 13
Участники:
0 раздают, 0 качают (0 участников всего)
Внешние участники:
9 раздают, 3 качают (12 участников всего) [ Обновить ]
Есть вопросы - пишите личное сообщение пользователю M0p94ok.
12:51
14
Нет комментариев. Ваш будет первым!