Поиск

2004 The New Sound Quartet - Summer Knows {Eighty-Eight's VRJL 7021} [DSD64]

2004 The New Sound Quartet - Summer Knows {Eighty-Eight's VRJL 7021} [DSD64]
Дата записи диска:
22 марта 2004
Место записи:
Avatar Studios, New York City
Дата издания диска:
2004
Дата переиздания диска:
2005
Номер по каталогу:
Eighty-Eight's VRJL 7021
Носитель:
SACD
Формат:
DSD
Тип рипа:
image
Контейнер:
ISO (*.iso)
Количество каналов:
2.0
Разрядность/ЧД:
64 (2,8 MHz/1 Bit)
Формат записи/Источник записи:
[SACD-R][OF]
Время звучания:
00:49:35
Наличие сканов:
web
Наличие водяных знаков:
нет
Страна-производитель диска (релиза):
Japan
Релизёр (источник):
M0p94ok
Треклист:

01. Tulipa  4:45
02. Emily  4:20
03. All The Things You Are  7:40
04. Dear Old Stockholm  5:26
05. Ray Brown Suite, Movement 1  4:43
06. The King (For T.M.)  4:35
07. Come Rain Or Come Shine  5:21
08. Bye Bye Blackbird  6:46
09. Summer Knows  5:54

Лог проверки качества
foobar2000 1.4.3 / Dynamic Range Meter 1.1.1
log date: 2020-02-17 13:31:30

--------------------------------------------------------------------------------
Analyzed: The New Sound Quartet / Summer Knows
--------------------------------------------------------------------------------

DR         Peak         RMS     Duration Track
--------------------------------------------------------------------------------
DR14      -4.21 dB   -21.00 dB      4:46 01-Tulipa
DR11      -8.66 dB   -22.65 dB      4:20 02-Emily
DR15      -4.45 dB   -24.28 dB      7:41 03-All The Things You Are
DR12      -4.22 dB   -18.90 dB      5:26 04-Dear Old Stockholm
DR13      -7.91 dB   -26.27 dB      4:44 05-Ray Brown Suite, Movement 1
DR13      -3.92 dB   -19.52 dB      4:36 06-The King (For T.M.)
DR14      -4.47 dB   -22.34 dB      5:22 07-Come Rain Or Come Shine
DR15      -4.27 dB   -22.42 dB      6:47 08-Bye Bye Blackbird
DR12     -10.00 dB   -27.74 dB      5:55 09-Summer Knows
--------------------------------------------------------------------------------

Number of tracks:  9
Official DR value: DR13

Samplerate:        2822400 Hz / PCM Samplerate: 44100 Hz
Channels:          2
Bits per sample:   1
Bitrate:           5645 kbps
Codec:             DSD64
================================================================================
Приватный:
Нет (DHT включён)
Размер:
2.01 Гб (2,156,508,519 байт) » файлов: 4
Участники:
3 раздают, 0 качают (3 участников всего)
Внешние участники:
--- [ Обновить ]
Есть вопросы - пишите личное сообщение пользователю M0p94ok.
14:20
27
Нет комментариев. Ваш будет первым!