Поиск

1962 Frank Sinatra - Sinatra Sings Great Songs From Great Britain (2014) {FSE, LLC} [24-96]

1962 Frank Sinatra - Sinatra Sings Great Songs From Great Britain (2014) {FSE, LLC} [24-96]
Треклист:

01. The Very Thought Of You (3:30)
02. We'll Gather Lilacs In The Spring (3:12)
03. If I Had You (4:04)
04. Now Is The Hour (2:48)
05. The Gypsy (3:18)
06. Roses Of Picardy (2:58)
07. A Nightingale Sang In Berkeley Square (3:51)
08. A Garden In The Rain (3:21)
09. London By Night (3:16)
10. We'll Meet Again (3:42)
11. I'll Follow My Secret Heart (3:15)

Доп. инфо:

Формат записи/Источник записи: [TR24][OF]
Наличие водяных знаков: Нет
Издание: Remastered
Год издания/переиздания диска: 1962/2014
Издатель (лейбл): Frank Sinatra Enterprises, LLC
Продолжительность: 37:16
Наличие сканов в содержимом раздачи: Только обложка альбома

Контейнер: FLAC (*.flac)
Тип рипа: tracks
Разрядность: 24/96
Формат: PCM
Количество каналов: 2.0

Источник: prostudiomasters.com

Лог проверки качества
foobar2000 1.3.9 / Dynamic Range Meter 1.1.1
log date: 2020-01-06 16:23:20

--------------------------------------------------------------------------------
Analyzed: Frank Sinatra / Sinatra Sings Great Songs From Great Britain
--------------------------------------------------------------------------------

DR         Peak         RMS     Duration Track
--------------------------------------------------------------------------------
DR11      -2.02 dB   -18.68 dB      3:30 01-The Very Thought Of You
DR10      -4.56 dB   -17.76 dB      3:12 02-We'll Gather Lilacs In The Spring
DR11      -2.91 dB   -17.40 dB      4:04 03-If I Had You
DR11      -4.86 dB   -18.86 dB      2:48 04-Now Is The Hour
DR12      -3.45 dB   -19.19 dB      3:18 05-The Gypsy
DR11      -2.44 dB   -18.51 dB      2:58 06-Roses Of Picardy
DR11      -4.54 dB   -18.79 dB      3:51 07-A Nightingale Sang In Berkeley Square
DR11      -4.54 dB   -19.57 dB      3:21 08-A Garden In The Rain
DR12      -3.47 dB   -19.77 dB      3:16 09-London By Night
DR11      -5.65 dB   -19.18 dB      3:42 10-We'll Meet Again
DR11      -4.17 dB   -18.81 dB      3:15 11-I'll Follow My Secret Heart
--------------------------------------------------------------------------------

Number of tracks:  11
Official DR value: DR11

Samplerate:        96000 Hz
Channels:          2
Bits per sample:   24
Bitrate:           2772 kbps
Codec:             FLAC
================================================================================
Приватный:
Нет (DHT включён)
Размер:
742.25 Мб (778,301,186 байт) » файлов: 14
Участники:
0 раздают, 0 качают (0 участников всего)
Внешние участники:
10 раздают, 3 качают (13 участников всего) [ Обновить ]
Есть вопросы - пишите личное сообщение пользователю M0p94ok.
15:06
13
Нет комментариев. Ваш будет первым!