Поиск

1962 Frank Sinatra - Sinatra Sings... Of Love And Things (2019) {RevOla} [24-44,1]

1962 Frank Sinatra - Sinatra Sings... Of Love And Things (2019) {RevOla} [24-44,1]
Треклист:

01. The Nearness Of You (2:43)
02. Hidden Persuasion (2:25)
03. The Moon Was Yellow (3:01)
04. I Love Paris (1:51)
05. Monique (Song From “Kings Go Forth”) (3:17)
06. Chicago (2:11)
07. Love Looks So Well On You (2:40)
08. Sentimental Baby (2:37)
09. Mr. Success (2:41)
10. They Came To Cordura (3:00)
11. I Gotta Right To Sing The Blues (2:59)
12. Something Wonderful Happens In Summer (3:13)

Доп. инфо:

Формат записи/Источник записи: [TR24][OF]
Наличие водяных знаков: Нет
Издание: Remastered
Год издания/переиздания диска: 1962/2019
Издатель (лейбл): RevOla Records
Продолжительность: 32:39
Наличие сканов в содержимом раздачи: Только обложка альбома

Контейнер: FLAC (*.flac)
Тип рипа: tracks
Разрядность: 24/44,1
Формат: PCM
Количество каналов: 2.0

Источник: qobuz.com

Лог проверки качества
foobar2000 1.3.9 / Dynamic Range Meter 1.1.1
log date: 2020-01-06 17:34:08

--------------------------------------------------------------------------------
Analyzed: Frank Sinatra / Sinatra Sings... Of Love And Things
--------------------------------------------------------------------------------

DR         Peak         RMS     Duration Track
--------------------------------------------------------------------------------
DR10      -1.14 dB   -14.48 dB      2:43 01-The Nearness Of You
DR10      -0.47 dB   -13.33 dB      2:25 02-Hidden Persuasion
DR10      -0.60 dB   -14.46 dB      3:01 03-The Moon Was Yellow
DR10      -0.96 dB   -14.87 dB      1:51 04-I Love Paris
DR9       -1.08 dB   -14.11 dB      3:17 05-Monique (Song From “Kings Go Forth”)
DR9       -1.13 dB   -12.40 dB      2:11 06-Chicago
DR11      -1.93 dB   -16.34 dB      2:40 07-Love Looks So Well On You
DR12      -1.15 dB   -16.54 dB      2:37 08-Sentimental Baby
DR9       -0.74 dB   -12.43 dB      2:41 09-Mr. Success
DR10      -1.24 dB   -16.00 dB      3:00 10-They Came To Cordura
DR11      -1.09 dB   -14.91 dB      2:59 11-I Gotta Right To Sing The Blues
DR10      -2.27 dB   -15.48 dB      3:13 12-Something Wonderful Happens In Summer
--------------------------------------------------------------------------------

Number of tracks:  12
Official DR value: DR10

Samplerate:        44100 Hz
Channels:          2
Bits per sample:   24
Bitrate:           1459 kbps
Codec:             FLAC
================================================================================
Приватный:
Нет (DHT включён)
Размер:
350.36 Мб (367,379,166 байт) » файлов: 15
Участники:
0 раздают, 0 качают (0 участников всего)
Внешние участники:
5 раздают, 1 качают (6 участников всего) [ Обновить ]
Есть вопросы - пишите личное сообщение пользователю M0p94ok.
15:39
19
Нет комментариев. Ваш будет первым!