Поиск

2005 Will Boulware - A Night In Tunisia {88, Village VRCL 18829} [DSD64]

2005 Will Boulware - A Night In Tunisia {88, Village VRCL 18829} [DSD64]
Стили:
Дата записи диска:
16 июня 2005
Место записи:
Avatar Studios, New York City
Номер по каталогу:
Eighty-Eight's, Village VRCL 18829
Носитель:
SACD
Формат:
DSD
Тип рипа:
image
Контейнер:
ISO (*.iso)
Количество каналов:
2.0
Разрядность/ЧД:
64 (2,8 MHz/1 Bit)
Формат записи/Источник записи:
[SACD-R][OF]
Время звучания:
00:51:45
Наличие сканов:
web
Наличие водяных знаков:
нет
Страна-производитель диска (релиза):
USA
Релизёр (источник):
M0p94ok
Треклист:

01    A Night In Tunisia    3:31
02    The Breeze And I    6:07
03    Yesterdays    6:43
04    Cleopatra's Dream    3:40
05    If I Were A Bell    4:06
06    Easy    5:20
07    What'd I Say    6:33
08    Pensive    5:57
09    The Fruit    5:54
10    Build Up    3:49

Лог проверки качества
foobar2000 1.4.3 / Dynamic Range Meter 1.1.1
log date: 2020-02-17 16:23:35

--------------------------------------------------------------------------------
Analyzed: Will Boulware / A Night In Tunisia
--------------------------------------------------------------------------------

DR         Peak         RMS     Duration Track
--------------------------------------------------------------------------------
DR13      -4.03 dB   -18.70 dB      3:31 01-A Night In Tunisia
DR16      -4.42 dB   -24.61 dB      6:07 02-The Breeze And I
DR14      -3.47 dB   -20.99 dB      6:44 03-Yesterdays
DR14      -3.94 dB   -19.65 dB      3:40 04-Cleopatra's Dream
DR13      -3.96 dB   -18.64 dB      4:06 05-If I Were A Bell
DR15      -4.02 dB   -20.84 dB      5:21 06-Easy
DR14      -3.66 dB   -19.62 dB      6:34 07-What'd I Say
DR13      -7.53 dB   -24.46 dB      5:57 08-Pensive
DR15      -3.70 dB   -20.72 dB      5:55 09-The Fruit
DR14      -4.11 dB   -20.07 dB      3:50 10-Build Up
--------------------------------------------------------------------------------

Number of tracks:  10
Official DR value: DR14

Samplerate:        2822400 Hz / PCM Samplerate: 44100 Hz
Channels:          2
Bits per sample:   1
Bitrate:           5645 kbps
Codec:             DSD64
================================================================================
Приватный:
Нет (DHT включён)
Размер:
2.09 Гб (2,248,081,583 байт) » файлов: 4
Участники:
2 раздают, 0 качают (2 участников всего)
Внешние участники:
--- [ Обновить ]
Есть вопросы - пишите личное сообщение пользователю M0p94ok.
16:44
28
Нет комментариев. Ваш будет первым!