Поиск

1978 Frank Sinatra - The Rare Sinatra (2019) {RevOla} [24-44,1]

1978 Frank Sinatra - The Rare Sinatra (2019) {RevOla} [24-44,1]
Треклист:

01. Day In, Day Out (3:19)
02. I'm Walking Behind You (2:56)
03. Don't Make A Beggar Of Me (3:02)
04. Ya Better Stop (2:34)
05. Take A Chance (2:38)
06. Day In, Day Out (alt. take) (3:06)
07. Memories Of You (2:52)
08. If It's The Last Thing I Do (3:58)
09. There's A Flaw In My Flue (2:39)
10. Wait Till You See Her (3:08)
11. Nothing In Common (2:32)
12. Same Old Song And Dance (2:52)
13. How Are Ya Fixed For Love? (2:26)
14. Where Or When? (2:27)
15. It All Depends On You (2:02)
16. I Couldn't Care Less (3:00)
17. The Song Is You (2:55)
18. The One I Love Belongs To Somebody Else (3:06)

Доп. инфо:

Формат записи/Источник записи: [TR24][OF]
Наличие водяных знаков: Нет
Издание: Remastered
Год издания/переиздания диска: 1978/2019
Издатель (лейбл): RevOla Records
Продолжительность: 51:32
Наличие сканов в содержимом раздачи: Только обложка альбома

Контейнер: FLAC (*.flac)
Тип рипа: tracks
Разрядность: 24/44,1
Формат: PCM
Количество каналов: 2.0

Источник: qobuz.com

Лог проверки качества
foobar2000 1.3.9 / Dynamic Range Meter 1.1.1
log date: 2020-01-06 19:45:21

--------------------------------------------------------------------------------
Analyzed: Frank Sinatra / The Rare Sinatra
--------------------------------------------------------------------------------

DR         Peak         RMS     Duration Track
--------------------------------------------------------------------------------
DR10      -1.14 dB   -16.04 dB      3:19 01-Day In, Day Out
DR11      -1.17 dB   -15.67 dB      2:56 02-I'm Walking Behind You
DR11      -2.73 dB   -16.08 dB      3:02 03-Don't Make A Beggar Of Me
DR12      -1.53 dB   -15.79 dB      2:34 04-Ya Better Stop
DR10      -1.23 dB   -14.22 dB      2:38 05-Take A Chance
DR10      -1.15 dB   -15.22 dB      3:06 06-Day In, Day Out (alt. take)
DR11      -2.97 dB   -17.69 dB      2:52 07-Memories Of You
DR12      -2.63 dB   -17.88 dB      3:58 08-If It's The Last Thing I Do
DR14      -2.91 dB   -21.05 dB      2:39 09-There's A Flaw In My Flue
DR12      -1.92 dB   -17.82 dB      3:08 10-Wait Till You See Her
DR12      -1.64 dB   -16.73 dB      2:32 11-Nothing In Common
DR11      -1.03 dB   -14.92 dB      2:52 12-Same Old Song And Dance
DR10      -1.51 dB   -14.51 dB      2:26 13-How Are Ya Fixed For Love?
DR10      -2.16 dB   -18.83 dB      2:27 14-Where Or When?
DR11      -0.75 dB   -15.09 dB      2:02 15-It All Depends On You
DR11      -2.76 dB   -18.84 dB      3:00 16-I Couldn't Care Less
DR12      -0.89 dB   -16.03 dB      2:55 17-The Song Is You
DR12      -2.97 dB   -18.77 dB      3:06 18-The One I Love Belongs To Somebody Else
--------------------------------------------------------------------------------

Number of tracks:  18
Official DR value: DR11

Samplerate:        44100 Hz
Channels:          2
Bits per sample:   24
Bitrate:           1395 kbps
Codec:             FLAC
================================================================================
Приватный:
Нет (DHT включён)
Размер:
543.25 Мб (569,639,516 байт) » файлов: 23
Участники:
0 раздают, 0 качают (0 участников всего)
Внешние участники:
5 раздают, 2 качают (7 участников всего) [ Обновить ]
Есть вопросы - пишите личное сообщение пользователю M0p94ok.
00:52
26
Нет комментариев. Ваш будет первым!