Поиск

1962 Frank Sinatra - Sinatra And Swingin' Brass (2014) {FSE, LLC} [24-192]

1962 Frank Sinatra - Sinatra And Swingin' Brass (2014) {FSE, LLC} [24-192]
Треклист:

01. Goody, Goody (1:46)
02. They Can't Take That Away From Me (2:40)
03. At Long Last Love (2:13)
04. I'm Beginning To See The Light (2:34)
05. Don'cha Go 'Way Mad (3:11)
06. I Get A Kick Out Of You (3:14)
07. Tangerine (2:02)
08. Love Is Just Around The Corner (2:27)
09. Ain't She Sweet (2:07)
10. Serenade In Blue (2:58)
11. I Love You (2:16)
12. Pick Yourself Up (2:32)

Доп. инфо:

Формат записи/Источник записи: [TR24][OF]
Наличие водяных знаков: Нет
Издание: Remastered
Год издания/переиздания диска: 1962/2014
Издатель (лейбл): Frank Sinatra Enterprises, LLC
Продолжительность: 30:01
Наличие сканов в содержимом раздачи: Только обложка альбома

Контейнер: FLAC (*.flac)
Тип рипа: tracks
Разрядность: 24/192
Формат: PCM
Количество каналов: 2.0

Источник: prostudiomasters.com

Лог проверки качества
foobar2000 1.3.9 / Dynamic Range Meter 1.1.1
log date: 2020-01-06 21:37:44

--------------------------------------------------------------------------------
Analyzed: Frank Sinatra / Sinatra And Swingin' Brass
--------------------------------------------------------------------------------

DR         Peak         RMS     Duration Track
--------------------------------------------------------------------------------
DR12      -0.24 dB   -14.01 dB      1:46 01-Goody, Goody
DR12      -0.28 dB   -14.34 dB      2:40 02-They Can't Take That Away From Me
DR12      -0.39 dB   -15.01 dB      2:13 03-At Long Last Love
DR13      -0.27 dB   -14.49 dB      2:34 04-I'm Beginning To See The Light
DR13      -0.21 dB   -14.87 dB      3:11 05-Don'cha Go 'Way Mad
DR12      -0.19 dB   -14.07 dB      3:14 06-I Get A Kick Out Of You
DR12      -0.23 dB   -14.02 dB      2:02 07-Tangerine
DR13      -0.27 dB   -15.52 dB      2:27 08-Love Is Just Around The Corner
DR12      -0.24 dB   -14.80 dB      2:07 09-Ain't She Sweet
DR13      -0.28 dB   -15.80 dB      2:58 10-Serenade In Blue
DR12      -0.25 dB   -15.43 dB      2:16 11-I Love You
DR12      -0.22 dB   -14.64 dB      2:32 12-Pick Yourself Up
--------------------------------------------------------------------------------

Number of tracks:  12
Official DR value: DR12

Samplerate:        192000 Hz
Channels:          2
Bits per sample:   24
Bitrate:           5277 kbps
Codec:             FLAC
================================================================================
Приватный:
Нет (DHT включён)
Размер:
1.10 Гб (1,182,263,855 байт) » файлов: 15
Участники:
0 раздают, 0 качают (0 участников всего)
Внешние участники:
7 раздают, 2 качают (9 участников всего) [ Обновить ]
Есть вопросы - пишите личное сообщение пользователю M0p94ok.
10:17
20
Нет комментариев. Ваш будет первым!