Поиск

2008 The Great Jazz Trio - Blue Minor {Eighty Eight's VRCL 38835} [DSD64]

2008 The Great Jazz Trio - Blue Minor {Eighty Eight's VRCL 38835} [DSD64]
Стили:
Дата записи диска:
сентябрь 2008
Место записи:
Sony Music Studios Tokyo
Номер по каталогу:
Eighty-Eight's VRCL-38835
Носитель:
SACD
Формат:
DSD
Тип рипа:
image
Контейнер:
ISO (*.iso)
Количество каналов:
2.0
Разрядность/ЧД:
64 (2,8 MHz/1 Bit)
Формат записи/Источник записи:
[SACD-R][OF]
Время звучания:
00:49:10
Наличие сканов:
web
Наличие водяных знаков:
нет
Страна-производитель диска (релиза):
Japan
Релизёр (источник):
M0p94ok
Треклист:

01. Nica's Dream (Silver-Copeland) - 6:03
02. Dear Old Stockholm (Getz) - 4:47
03. Lonely Moments (Williams) - 5:01
04. I Let a Song Go Out of My Heart (Mills-Nemo-Redmond-Ellington) - 3:25
05. Blue Minor (Clark) - 4:11
06. Comin' Home Baby (Tucker-Dorough) - 5:31
07. Wave (Jobim) - 6:45
08. My Ideal (Robin-Whiting-Chase) - 4:18
09. I Got Rhythm (Gershwin) - 4:09
10. Misty (Garner) - 5:00

Лог проверки качества
foobar2000 1.4.3 / Dynamic Range Meter 1.1.1
log date: 2020-02-18 10:24:02

--------------------------------------------------------------------------------
Analyzed: THE GREAT JAZZ TRIO / BLUE MINOR
--------------------------------------------------------------------------------

DR         Peak         RMS     Duration Track
--------------------------------------------------------------------------------
DR11      -4.19 dB   -17.38 dB      6:00 01-Nica's Dream
DR13      -6.67 dB   -23.11 dB      4:44 02-Dear Old Stockholm
DR12      -4.19 dB   -19.21 dB      4:59 03-Lonely Moments
DR12      -4.32 dB   -19.46 dB      3:23 04-I Let a Song Go Out of My Heart
DR13      -3.90 dB   -19.85 dB      4:09 05-Blue Minor
DR12      -4.26 dB   -19.49 dB      5:28 06-Comin' Home Baby
DR12      -4.23 dB   -19.49 dB      6:43 07-Wave
DR14      -5.34 dB   -26.01 dB      4:16 08-My Ideal
DR12      -4.04 dB   -19.06 dB      4:06 09-I Got Rhythm
DR16      -4.63 dB   -25.25 dB      5:00 10-Misty
--------------------------------------------------------------------------------

Number of tracks:  10
Official DR value: DR13

Samplerate:        2822400 Hz / PCM Samplerate: 44100 Hz
Channels:          2
Bits per sample:   1
Bitrate:           5645 kbps
Codec:             DSD64
================================================================================
Приватный:
Нет (DHT включён)
Размер:
1.98 Гб (2,128,945,081 байт) » файлов: 4
Участники:
2 раздают, 0 качают (2 участников всего)
Внешние участники:
--- [ Обновить ]
Есть вопросы - пишите личное сообщение пользователю M0p94ok.
14:08
22
Нет комментариев. Ваш будет первым!