Поиск

1992 Patricia Barber - A Distortion Of Love (2014) {Verve} [24-96]

1992 Patricia Barber - A Distortion Of Love (2014) {Verve} [24-96]
Стили:
Издатель (лейбл):
Треклист:

01 - Summertime 06:15
02 - Subway Station # 5 09:32
03 - You Stepped Out Of A Dream 07:38
04 - Parts Parallels 05:06
05 - Or Not To Be 07:04
06 - Yellow Car 05:51
07 - Yet Another In A Long Series Of Yellow Car 04:27
08 - I Never Went Away 04:38
09 - My Girl 03:45
10 - By Myself 04:58

Доп. инфо:

Формат записи/Источник записи: [TR24][OF]
Издание: Reissue
Год издания/переиздания диска: 1992/2014
Продолжительность: 00:59:14
Наличие сканов в содержимом раздачи: Нет

Контейнер: FLAC (*.flac)
Тип рипа: tracks
Разрядность: 24/96
Количество каналов: 2.0

Источник (релизер): Qobuz

Лог проверки качества
foobar2000 1.4.3 / Dynamic Range Meter 1.1.1
log date: 2020-01-07 08:28:44

--------------------------------------------------------------------------------
Analyzed: Patricia Barber / A Distortion Of Love
--------------------------------------------------------------------------------

DR         Peak         RMS     Duration Track
--------------------------------------------------------------------------------
DR13      -5.04 dB   -24.93 dB      6:15 01-Summertime
DR13      -0.64 dB   -16.68 dB      9:33 02-Subway Station # 5
DR14      -0.42 dB   -20.60 dB      7:38 03-You Stepped Out Of A Dream
DR14      -3.29 dB   -22.02 dB      5:07 04-Parts Parallels
DR14      -1.88 dB   -22.54 dB      7:04 05-Or Not To Be
DR14      -0.17 dB   -17.62 dB      5:51 06-Yellow Car
DR14      -3.64 dB   -22.26 dB      4:28 07-Yet Another In A Long Series Of Yellow Car
DR15      -2.96 dB   -23.18 dB      4:39 08-I Never Went Away
DR19      -1.53 dB   -24.51 dB      3:45 09-My Girl
DR16      -3.74 dB   -26.45 dB      4:58 10-By Myself
--------------------------------------------------------------------------------

Number of tracks:  10
Official DR value: DR15

Samplerate:        96000 Hz
Channels:          2
Bits per sample:   24
Bitrate:           2734 kbps
Codec:             FLAC
================================================================================
Приватный:
Нет (DHT включён)
Размер:
1.24 Гб (1,327,704,107 байт) » файлов: 14
Участники:
0 раздают, 9 качают (9 участников всего)
Внешние участники:
11 раздают, 4 качают (15 участников всего) [ Обновить ]
Есть вопросы - пишите личное сообщение пользователю M0p94ok.
17:07
30
Нет комментариев. Ваш будет первым!