Поиск

1962 Frank Sinatra - Point Of No Return (2019) {RevOla} [24-44,1]

1962 Frank Sinatra - Point Of No Return (2019) {RevOla} [24-44,1]
Треклист:

01. When The World Was Young (3:48)
02. I'll Remember April (2:50)
03. September Song (4:20)
04. A Million Dreams Ago (2:41)
05. I'll See You Again (2:43)
06. There Will Never Be Another You (3:15)
07. Somewhere Along The Way (2:59)
08. It's A Blue World (2:50)
09. These Foolish Things (Remind Me Of You) (3:59)
10. As Time Goes By (3:16)
11. I'll Be Seeing You (2:48)
12. Memories Of You (3:57)

Доп. инфо:

Формат записи/Источник записи: [TR24][OF]
Наличие водяных знаков: Нет
Издание: Remastered
Год издания/переиздания диска: 1962/2019
Издатель (лейбл): RevOla Records
Продолжительность: 39:25
Наличие сканов в содержимом раздачи: Только обложка альбома

Контейнер: FLAC (*.flac)
Тип рипа: tracks
Разрядность: 24/44,1
Формат: PCM
Количество каналов: 2.0

Источник: qobuz.com

Лог проверки качества
foobar2000 1.3.9 / Dynamic Range Meter 1.1.1
log date: 2020-01-06 14:36:09

--------------------------------------------------------------------------------
Analyzed: Frank Sinatra / Point Of No Return
--------------------------------------------------------------------------------

DR         Peak         RMS     Duration Track
--------------------------------------------------------------------------------
DR12      -5.31 dB   -20.44 dB      3:48 01-When The World Was Young
DR11      -2.78 dB   -18.87 dB      2:50 02-I'll Remember April
DR12      -4.34 dB   -19.71 dB      4:20 03-September Song
DR12      -1.61 dB   -18.05 dB      2:41 04-A Million Dreams Ago
DR11      -4.35 dB   -19.71 dB      2:43 05-I'll See You Again
DR11      -2.48 dB   -17.99 dB      3:15 06-There Will Never Be Another You
DR11      -6.72 dB   -20.64 dB      2:59 07-Somewhere Along The Way
DR9       -4.50 dB   -17.99 dB      2:50 08-It's A Blue World
DR12      -4.21 dB   -19.66 dB      3:59 09-These Foolish Things (Remind Me Of You)
DR11      -4.27 dB   -19.70 dB      3:16 10-As Time Goes By
DR10      -6.48 dB   -20.65 dB      2:48 11-I'll Be Seeing You
DR10      -4.25 dB   -18.75 dB      3:57 12-Memories Of You
--------------------------------------------------------------------------------

Number of tracks:  12
Official DR value: DR11

Samplerate:        44100 Hz
Channels:          2
Bits per sample:   24
Bitrate:           1443 kbps
Codec:             FLAC
================================================================================
Приватный:
Нет (DHT включён)
Размер:
402.09 Мб (421,626,043 байт) » файлов: 15
Участники:
0 раздают, 0 качают (0 участников всего)
Внешние участники:
5 раздают, 1 качают (6 участников всего) [ Обновить ]
Есть вопросы - пишите личное сообщение пользователю M0p94ok.
23:18
22
Нет комментариев. Ваш будет первым!