Поиск

1961 Frank Sinatra - Sinatra's Swingin' Session! (2019) {RevOla} [24-44,1]

1961 Frank Sinatra - Sinatra's Swingin' Session! (2019) {RevOla} [24-44,1]
Треклист:

01. When You're Smiling (The Whole World Smiles With You) (2:00)
02. Blue Moon (2:51)
03. S'posin' (1:47)
04. It All Depends On You (2:01)
05. It's Only A Paper Moon (2:18)
06. My Blue Heaven (2:02)
07. Should I? (1:30)
08. September In The Rain (2:59)
09. Always (2:16)
10. I Can't Believe That You're In Love With Me (2:25)
11. I Concentrate On You (2:23)
12. You Do Something To Me (1:34)

Доп. инфо:

Формат записи/Источник записи: [TR24][OF]
Наличие водяных знаков: Нет
Издание: Remastered
Год издания/переиздания диска: 1961/2019
Издатель (лейбл): RevOla Records
Продолжительность: 26:05
Наличие сканов в содержимом раздачи: Только обложка альбома

Контейнер: FLAC (*.flac)
Тип рипа: tracks
Разрядность: 24/44,1
Формат: PCM
Количество каналов: 2.0

Источник: qobuz.com

Лог проверки качества
foobar2000 1.3.9 / Dynamic Range Meter 1.1.1
log date: 2020-01-06 09:44:52

--------------------------------------------------------------------------------
Analyzed: Frank Sinatra / Sinatra's Swingin' Session!
--------------------------------------------------------------------------------

DR         Peak         RMS     Duration Track
--------------------------------------------------------------------------------
DR11      -2.26 dB   -15.94 dB      2:00 01-When You're Smiling (The Whole World Smiles With You)
DR12      -2.15 dB   -16.22 dB      2:51 02-Blue Moon
DR12      -0.86 dB   -15.85 dB      1:47 03-S'posin'
DR12      -0.76 dB   -16.16 dB      2:01 04-It All Depends On You
DR12      -1.67 dB   -16.12 dB      2:18 05-It's Only A Paper Moon
DR11      -1.36 dB   -15.71 dB      2:02 06-My Blue Heaven
DR12      -1.58 dB   -16.10 dB      1:30 07-Should I?
DR12      -2.60 dB   -16.58 dB      2:59 08-September In The Rain
DR12      -0.54 dB   -16.63 dB      2:16 09-Always
DR13      -1.35 dB   -17.02 dB      2:25 10-I Can't Believe That You're In Love With Me
DR12      -1.67 dB   -16.62 dB      2:23 11-I Concentrate On You
DR12      -1.18 dB   -17.05 dB      1:34 12-You Do Something To Me
--------------------------------------------------------------------------------

Number of tracks:  12
Official DR value: DR12

Samplerate:        44100 Hz
Channels:          2
Bits per sample:   24
Bitrate:           1560 kbps
Codec:             FLAC
================================================================================
Приватный:
Нет (DHT включён)
Размер:
301.31 Мб (315,949,578 байт) » файлов: 15
Участники:
0 раздают, 0 качают (0 участников всего)
Внешние участники:
5 раздают, 1 качают (6 участников всего) [ Обновить ]
Есть вопросы - пишите личное сообщение пользователю M0p94ok.
18:28
18
Нет комментариев. Ваш будет первым!