Поиск

2018 Archibald - Still That Girl {Archibald} [24-88,2]

2018 Archibald - Still That Girl {Archibald} [24-88,2]
Стили:
Носитель:
WEB
Формат:
PCM
Тип рипа:
tracks
Контейнер:
FLAC (*.flac)
Количество каналов:
2.0
Разрядность/ЧД:
24/88,2
Наличие сканов:
только обложка
Наличие водяных знаков:
нет
Релизёр (источник):
M0p94ok
Треклист:

1. Still That Girl (Youhou)  04:40
2. Tiptoes  03:41
3. Let Me  03:43

Лог проверки качества
foobar2000 1.3.16 / Dynamic Range Meter 1.1.1
log date: 2018-11-16 18:16:09

--------------------------------------------------------------------------------
Analyzed: Archibald / Still That Girl
--------------------------------------------------------------------------------

DR         Peak         RMS     Duration Track
--------------------------------------------------------------------------------
DR12      -0.78 dB   -15.70 dB      4:41 01-Still That Girl (Youhou) (Youhou)
DR12      -0.74 dB   -15.82 dB      3:42 02-Tiptoes
DR11      -1.18 dB   -15.26 dB      3:44 03-Let Me
--------------------------------------------------------------------------------

Number of tracks:  3
Official DR value: DR12

Samplerate:        88200 Hz
Channels:          2
Bits per sample:   24
Bitrate:           2489 kbps
Codec:             FLAC
================================================================================
Приватный:
Нет (DHT включён)
Размер:
217.55 Мб (228,112,604 байт) » файлов: 5
Участники:
1 раздают, 1 качают (2 участников всего)
Внешние участники:
--- [ Обновить ]
Есть вопросы - пишите личное сообщение пользователю M0p94ok.
16:33
26
Нет комментариев. Ваш будет первым!