Поиск

1959 Frank Sinatra - No One Cares (2019) {RevOla} [24-44,1]

1959 Frank Sinatra - No One Cares (2019) {RevOla} [24-44,1]
Треклист:

01. When No One Cares (2:42)
02. A Cottage For Sale (3:16)
03. Stormy Weather (3:21)
04. Where Do You Go? (2:33)
05. I Don't Stand A Ghost Of Chance With You (3:16)
06. Here's That Rainy Day (3:35)
07. I Can't Get Started (4:01)
08. Why Try To Change Me Now? (3:42)
09. Just Friends (3:40)
10. I'll Never Smile Again (3:46)
11. None But The Lonely Heart (3:42)
12. The One I Love (Belongs To Somebody Else) (3:05)

Доп. инфо:

Формат записи/Источник записи: [TR24][OF]
Наличие водяных знаков: Нет
Издание: Remastered
Год издания/переиздания диска: 1959/2019
Издатель (лейбл): RevOla Records
Продолжительность: 40:40
Наличие сканов в содержимом раздачи: Только обложка альбома

Контейнер: FLAC (*.flac)
Тип рипа: tracks
Разрядность: 24/44,1
Формат: PCM
Количество каналов: 2.0

Источник: qobuz.com

Лог проверки качества
foobar2000 1.3.9 / Dynamic Range Meter 1.1.1
log date: 2020-01-06 13:45:36

--------------------------------------------------------------------------------
Analyzed: Frank Sinatra / No One Cares
--------------------------------------------------------------------------------

DR         Peak         RMS     Duration Track
--------------------------------------------------------------------------------
DR12      -3.96 dB   -21.98 dB      2:42 01-When No One Cares
DR14      -2.65 dB   -22.70 dB      3:16 02-A Cottage For Sale
DR14      -3.15 dB   -20.96 dB      3:21 03-Stormy Weather
DR13      -3.23 dB   -21.21 dB      2:33 04-Where Do You Go?
DR13      -3.73 dB   -21.57 dB      3:16 05-I Don't Stand A Ghost Of Chance With You
DR14      -3.78 dB   -22.38 dB      3:35 06-Here's That Rainy Day
DR14      -2.67 dB   -21.02 dB      4:01 07-I Can't Get Started
DR14      -3.23 dB   -21.46 dB      3:42 08-Why Try To Change Me Now?
DR13      -3.05 dB   -21.33 dB      3:40 09-Just Friends
DR12      -3.21 dB   -20.15 dB      3:46 10-I'll Never Smile Again
DR12      -3.14 dB   -20.21 dB      3:42 11-None But The Lonely Heart
DR12      -6.06 dB   -22.33 dB      3:05 12-The One I Love (Belongs To Somebody Else)
--------------------------------------------------------------------------------

Number of tracks:  12
Official DR value: DR13

Samplerate:        44100 Hz
Channels:          2
Bits per sample:   24
Bitrate:           1354 kbps
Codec:             FLAC
================================================================================
Приватный:
Нет (DHT включён)
Размер:
402.92 Мб (422,493,568 байт) » файлов: 15
Участники:
0 раздают, 1 качают (1 участников всего)
Внешние участники:
5 раздают, 1 качают (6 участников всего) [ Обновить ]
Есть вопросы - пишите личное сообщение пользователю M0p94ok.
14:33
24
Нет комментариев. Ваш будет первым!