Вы используете незарегистрированную версию компонента "Вкладки"!

Поиск

2018 Dominique Lemerle Quartet - This Is New {Black And Blue BB 1010-2} [24-44,1]

2018 Dominique Lemerle Quartet - This Is New {Black And Blue BB 1010-2} [24-44,1]
Стили:
Номер по каталогу:
Black And Blue BB 1010-2
Носитель:
WEB
Формат:
PCM
Тип рипа:
tracks+.cue
Контейнер:
FLAC (*.flac)
Количество каналов:
2.0
Разрядность/ЧД:
24/44,1
Время звучания:
00:49:40
Наличие сканов:
web
Страна-производитель диска (релиза):
France
Релизёр (источник):
M0p94ok
Лог проверки качества
foobar2000 1.4.3 / Dynamic Range Meter 1.1.1
log date: 2020-02-16 13:51:16

--------------------------------------------------------------------------------
Analyzed: Dominique Lemerle Quartet / This Is New
--------------------------------------------------------------------------------

DR         Peak         RMS     Duration Track
--------------------------------------------------------------------------------
DR11      -0.18 dB   -13.21 dB      3:32 01-This Is New (Take 2)
DR11      -0.24 dB   -14.60 dB      4:59 02-Peau Douce
DR11      -0.22 dB   -13.78 dB      3:24 03-Big Foot _ Ease It
DR11      -0.24 dB   -14.27 dB      5:57 04-Manoir De Mes Reves
DR12      -0.24 dB   -15.52 dB      3:45 05-My Funny Valentine
DR10      -0.20 dB   -14.27 dB      4:51 06-Gloria's Step
DR13      -0.24 dB   -16.62 dB      6:03 07-My Foolish Heart
DR11      -0.11 dB   -13.05 dB      3:07 08-Sippin' At Bell
DR10      -0.22 dB   -13.01 dB      5:11 09-Waltz New
DR10      -0.22 dB   -13.31 dB      4:52 10-Comrad Conrad
DR11      -0.23 dB   -13.69 dB      4:00 11-This Is New (Take 1)
--------------------------------------------------------------------------------

Number of tracks:  11
Official DR value: DR11

Samplerate:        44100 Hz
Channels:          2
Bits per sample:   24
Bitrate:           1581 kbps
Codec:             FLAC
================================================================================
Any questions - support@pro-jazz.com. Есть вопросы - support@pro-jazz.com
14:01
219
Нет комментариев. Ваш будет первым!