Поиск

1951-1959 Oscar Peterson - Simply ... Peterson! (2019) {Jube Legends} [24-48]

1951-1959 Oscar Peterson - Simply ... Peterson! (2019) {Jube Legends} [24-48]
Стили:
Треклист:

01 - Pompton Turnpike 06:44
02 - Alone together 02:25
03 - The Continental 03:56
04 - Cherokee 05:23
05 - Simple Life 05:39
06 - Willow weep for me 03:18
07 - Broadway Melody of 1929: Singin' in the rain 05:55
08 - Love you madly 06:03
09 - Soft winds 06:19
10 - Gold Diggers of Broadway 1937: The lullaby of Broadway 02:26
11 - Westside Story: Somewhere 05:34
12 - Westside Story: Something's comin' 03:52
13 - Westside Story: Jet Song 07:46
14 - Westside Story: Tonight 04:34
15 - Westside Story: Maria 04:52
16 - Westside Story: I feel pretty 04:27
17 - Westside Story: Reprise 03:55
18 - Exactly like you 02:23
19 - Robin's nest 03:12
20 - Jumpin' with Symphony Sid 02:56
21 - Debut 02:48
22 - The Astaire Blues 12:01
23 - Little white lies 03:07
24 - Lover 02:58
25 - Born to dance: I've got you under my skin 02:47
26 - Babes in arms: My funny Valentine 02:42
27 - Lew Leslie's International Revue: On the sunny side of the street 03:06
28 - A damsel in distress: A foggy day 02:50
29 - Show Boat: Ol' Man River 02:33
30 - The Blue Moon: Blue Moon 02:40
31 - The life of Jimmy Dolan: How deep Is the ocean 02:57
32 - Top Hat: Cheek to cheek 02:25
33 - The man I love 03:04
34 - Every night at eight: I'm in the mood for love 02:26
35 - Cottontail 02:20
36 - The gay divore: Night and day 02:30
37 - Sun Valley Serenade: Chattanooga Choo Choo 02:03
38 - The New Yorkers: Love for sale 03:25
39 - Porgy and Bess: Summertime 02:53
40 - Garrick Gaieties: Manhattan 02:52
41 - Can Can: It's allright with me 02:51
42 - Roberta: Yesterdays 03:16
43 - Take the a-Train 03:00
44 - Tenderly 03:37
45 - Stomping at the Savoy 10:53

Доп. инфо:

Формат записи/Источник записи: [TR24][OF]
Издание: Remastered
Год издания/переиздания диска: 1951-59/2019
Издатель (лейбл): Jube Legends
Продолжительность: 02:59:43
Наличие сканов в содержимом раздачи: Нет

Контейнер: FLAC (*.flac)
Тип рипа: tracks
Разрядность: 24/48
Количество каналов: 2.0

Источник (релизер): Qobuz

Лог проверки качества
foobar2000 1.4.3 / Dynamic Range Meter 1.1.1
log date: 2020-01-06 09:13:24

--------------------------------------------------------------------------------
Analyzed: Oscar Peterson / Simply ... Peterson! (2019 Remaster)
--------------------------------------------------------------------------------

DR         Peak         RMS     Duration Track
--------------------------------------------------------------------------------
DR14       0.00 dB   -16.90 dB      6:44 01-Pompton Turnpike
DR14       0.00 dB   -16.66 dB      2:25 02-Alone together
DR15       0.00 dB   -18.62 dB      3:57 03-The Continental
DR14       0.00 dB   -16.80 dB      5:24 04-Cherokee
DR14       0.00 dB   -17.14 dB      5:39 05-Simple Life
DR13       0.00 dB   -15.84 dB      3:18 06-Willow weep for me
DR12       0.00 dB   -17.83 dB      5:56 07-Broadway Melody of 1929: Singin' in the rain
DR14       0.00 dB   -17.13 dB      6:04 08-Love you madly
DR14       0.00 dB   -18.36 dB      6:19 09-Soft winds
DR12       0.00 dB   -15.07 dB      2:26 10-Gold Diggers of Broadway 1937: The lullaby of Broadway
DR10       0.00 dB   -14.14 dB      5:35 11-Westside Story: Somewhere
DR9        0.00 dB   -12.45 dB      3:53 12-Westside Story: Something's comin'
DR11       0.00 dB   -13.18 dB      7:46 13-Westside Story: Jet Song
DR9        0.00 dB   -11.47 dB      4:34 14-Westside Story: Tonight
DR10       0.00 dB   -13.92 dB      4:53 15-Westside Story: Maria
DR10       0.00 dB   -11.37 dB      4:27 16-Westside Story: I feel pretty
DR10       0.00 dB   -13.65 dB      3:55 17-Westside Story: Reprise
DR13       0.00 dB   -14.79 dB      2:24 18-Exactly like you
DR13       0.00 dB   -16.31 dB      3:13 19-Robin's nest
DR12       0.00 dB   -14.52 dB      2:56 20-Jumpin' with Symphony Sid
DR13       0.00 dB   -14.85 dB      2:49 21-Debut
DR13       0.00 dB   -14.82 dB     12:01 22-The Astaire Blues
DR12       0.00 dB   -15.42 dB      3:08 23-Little white lies
DR12       0.00 dB   -14.35 dB      2:59 24-Lover
DR14       0.00 dB   -19.29 dB      2:47 25-Born to dance: I've got you under my skin
DR15       0.00 dB   -18.43 dB      2:42 26-Babes in arms: My funny Valentine
DR14       0.00 dB   -18.77 dB      3:06 27-Lew Leslie's International Revue: On the sunny side of the street
DR13       0.00 dB   -16.37 dB      2:51 28-A damsel in distress: A foggy day
DR13       0.00 dB   -16.87 dB      2:33 29-Show Boat: Ol' Man River
DR12       0.00 dB   -15.53 dB      2:40 30-The Blue Moon: Blue Moon
DR13       0.00 dB   -17.59 dB      2:58 31-The life of Jimmy Dolan: How deep Is the ocean
DR12      -0.23 dB   -14.42 dB      2:25 32-Top Hat: Cheek to cheek
DR13       0.00 dB   -16.85 dB      3:04 33-The man I love
DR15       0.00 dB   -17.31 dB      2:26 34-Every night at eight: I'm in the mood for love
DR12       0.00 dB   -16.68 dB      2:20 35-Cottontail
DR15       0.00 dB   -17.43 dB      2:30 36-The gay divore: Night and day
DR15      -0.13 dB   -18.25 dB      2:03 37-Sun Valley Serenade: Chattanooga Choo Choo
DR14       0.00 dB   -16.50 dB      3:26 38-The New Yorkers: Love for sale
DR13       0.00 dB   -18.91 dB      2:53 39-Porgy and Bess: Summertime
DR13       0.00 dB   -16.71 dB      2:52 40-Garrick Gaieties: Manhattan
DR14       0.00 dB   -17.60 dB      2:51 41-Can Can: It's allright with me
DR12      -0.15 dB   -15.42 dB      3:17 42-Roberta: Yesterdays
DR14       0.00 dB   -19.64 dB      3:01 43-Take the a-Train
DR14       0.00 dB   -18.87 dB      3:38 44-Tenderly
DR13       0.00 dB   -14.82 dB     10:53 45-Stomping at the Savoy
--------------------------------------------------------------------------------

Number of tracks:  45
Official DR value: DR13

Samplerate:        48000 Hz
Channels:          2
Bits per sample:   24
Bitrate:           713 kbps
Codec:             FLAC
================================================================================
Приватный:
Нет (DHT включён)
Размер:
968.93 Мб (1,015,992,179 байт) » файлов: 49
Участники:
0 раздают, 0 качают (0 участников всего)
Внешние участники:
8 раздают, 2 качают (10 участников всего) [ Обновить ]
Есть вопросы - пишите личное сообщение пользователю M0p94ok.
12:29
19
Нет комментариев. Ваш будет первым!