Поиск

2019 GoGo Penguin - Ocean In A Drop (Music For Film) {Blue Note} [24-88,2]

2019 GoGo Penguin - Ocean In A Drop (Music For Film) {Blue Note} [24-88,2]
Издатель (лейбл):
Треклист:

01. Time-Lapse City (03:55)
02. Control Shift (07:09)
03. Four Corners (04:29)
04. Ocean In A Drop (04:20)
05. Nessus (02:50)

Доп. инфо:

Формат записи/Источник записи: [TR24][OF]
Наличие водяных знаков: Нет
Год издания/переиздания диска: 2019
Продолжительность: 00:22:40
Наличие сканов в содержимом раздачи: Только обложка альбома
Источник (релизер): qobuz
Контейнер: FLAC (*.flac)
Тип рипа: tracks
Разрядность: 24/88,2
Формат: PCM
Количество каналов: 2.0

Лог проверки качества
foobar2000 1.1.15 / Dynamic Range Meter 1.1.1
log date: 2020-01-05 23:55:21

--------------------------------------------------------------------------------
Analyzed: GoGo Penguin / Ocean In A Drop (Music For Film)
--------------------------------------------------------------------------------

DR         Peak         RMS     Duration Track
--------------------------------------------------------------------------------
DR7       -0.40 dB    -8.72 dB      3:55 01-Time-Lapse City
DR7       -0.40 dB    -8.85 dB      7:09 02-Control Shift
DR8       -0.40 dB    -9.51 dB      4:29 03-Four Corners
DR7       -0.40 dB   -10.79 dB      4:20 04-Ocean In A Drop
DR12      -0.40 dB   -16.84 dB      2:50 05-Nessus
--------------------------------------------------------------------------------

Number of tracks:  5
Official DR value: DR8

Samplerate:        88200 Hz
Channels:          2
Bits per sample:   24
Bitrate:           2104 kbps
Codec:             FLAC
================================================================================
Приватный:
Нет (DHT включён)
Размер:
418.77 Мб (439,107,333 байт) » файлов: 8
Участники:
0 раздают, 0 качают (0 участников всего)
Внешние участники:
27 раздают, 9 качают (36 участников всего) [ Обновить ]
Есть вопросы - пишите личное сообщение пользователю M0p94ok.
11:58
30
Нет комментариев. Ваш будет первым!