Поиск

2020 Remi Panossian Trio - In Odd We Trust {Add Fiction} [24-96]

2020 Remi Panossian Trio - In Odd We Trust {Add Fiction} [24-96]
Стили:
Дата издания диска:
31 января 2020
Носитель:
WEB
Формат:
PCM
Тип рипа:
tracks
Контейнер:
FLAC (*.flac)
Количество каналов:
2.0
Разрядность/ЧД:
24/96
Формат записи/Источник записи:
[TR24][OF]
Время звучания:
00:43:50
Наличие сканов:
только обложка
Наличие водяных знаков:
нет
Релизёр (источник):
M0p94ok
Треклист:

01. Seven Hills  03:39
02. Vengeance tardive  03:41
03. After Van Gogh  04:25
04. Dr. Vincent  05:13
05. Bye Bye tristesse  04:48
06. Junkie Babies  05:27
07. Walking Trees  04:27
08. Wind Memories  03:38
09. Think One Thing and Sing  03:17
10. Le clou et la panthère  05:10

Лог проверки качества
foobar2000 1.4.3 / Dynamic Range Meter 1.1.1
log date: 2020-02-16 08:52:00

--------------------------------------------------------------------------------
Analyzed: Rémi Panossian Trio / In Odd We Trust
--------------------------------------------------------------------------------

DR         Peak         RMS     Duration Track
--------------------------------------------------------------------------------
DR9       -0.30 dB   -11.34 dB      3:39 01-Seven Hills
DR10      -0.30 dB   -12.36 dB      3:41 02-Vengeance tardive
DR11      -0.61 dB   -15.29 dB      4:26 03-After Van Gogh
DR8       -0.30 dB   -11.36 dB      5:14 04-Dr. Vincent
DR9       -0.30 dB   -13.86 dB      4:49 05-Bye Bye tristesse
DR10      -0.30 dB   -12.85 dB      5:28 06-Junkie Babies
DR10      -0.30 dB   -13.84 dB      4:28 07-Walking Trees
DR11      -0.66 dB   -14.40 dB      3:39 08-Wind Memories
DR8       -0.30 dB    -9.94 dB      3:18 09-Think One Thing and Sing
DR9       -0.30 dB   -12.61 dB      5:10 10-Le clou et la panthère
--------------------------------------------------------------------------------

Number of tracks:  10
Official DR value: DR10

Samplerate:        96000 Hz
Channels:          2
Bits per sample:   24
Bitrate:           2757 kbps
Codec:             FLAC
================================================================================
Приватный:
Нет (DHT включён)
Размер:
847.56 Мб (888,731,442 байт) » файлов: 13
Участники:
0 раздают, 0 качают (0 участников всего)
Внешние участники:
--- [ Обновить ]
Скорость:
0/c 733.00 байт/c
Есть вопросы - пишите личное сообщение пользователю M0p94ok.
09:37
22
Нет комментариев. Ваш будет первым!