Поиск

2018 Commander Spoon - Declining [24-44,1]

2018 Commander Spoon - Declining [24-44,1]
Стили:
Дата издания диска:
7 ноября 2018
Носитель:
WEB
Формат:
PCM
Тип рипа:
tracks
Контейнер:
FLAC (*.flac)
Количество каналов:
2.0
Разрядность/ЧД:
24/44,1
Формат записи/Источник записи:
[TR24][OF]
Время звучания:
00:25:21
Наличие сканов:
только обложка
Наличие водяных знаков:
нет
Релизёр (источник):
M0p94ok
Треклист:

1. Declining - Part I 06:36    
2. Declining - Part II 05:01    
3. Declining - Part III 06:34    
4. Declining - Part IV 07:10

Лог проверки качества
foobar2000 1.4.3 / Dynamic Range Meter 1.1.1
log date: 2020-02-15 23:19:23

--------------------------------------------------------------------------------
Analyzed: Commander Spoon / Declining
--------------------------------------------------------------------------------

DR         Peak         RMS     Duration Track
--------------------------------------------------------------------------------
DR7       -0.18 dB    -9.91 dB      6:37 01-Declining, Pt. I
DR6       -0.17 dB    -8.31 dB      5:01 02-Declining, Pt. II
DR6       -0.13 dB    -7.45 dB      6:34 03-Declining, Pt. III
DR8       -0.16 dB    -9.91 dB      7:11 04-Declining, Pt. IV
--------------------------------------------------------------------------------

Number of tracks:  4
Official DR value: DR7

Samplerate:        44100 Hz
Channels:          2
Bits per sample:   24
Bitrate:           1551 kbps
Codec:             FLAC
================================================================================
Приватный:
Нет (DHT включён)
Размер:
285.66 Мб (299,537,487 байт) » файлов: 7
Участники:
0 раздают, 0 качают (0 участников всего)
Внешние участники:
--- [ Обновить ]
Скорость:
532.82 Кб/c 0/c
Есть вопросы - пишите личное сообщение пользователю M0p94ok.
23:48
32
Нет комментариев. Ваш будет первым!