Поиск

1961 Frank Sinatra - All The Way (2019) {RevOla} [24-44,1]

1961 Frank Sinatra - All The Way (2019) {RevOla} [24-44,1]
Треклист:

01. All The Way (2:52)
02. High Hopes (2:41)
03. Talk To Me (3:00)
04. French Foreign Legion (1:59)
05. To Love And Be Loved (3:49)
06. River, Stay 'Way From My Door (2:36)
07. Witchcraft (2:51)
08. It's Over, It's Over, It's Over (2:38)
09. Ol' MacDonald (2:39)
10. This Was My Love (3:24)
11. All My Tomorrows (3:12)
12. Sleep Warm (2:43)

Доп. инфо:

Формат записи/Источник записи: [TR24][OF]
Наличие водяных знаков: Нет
Издание: Remastered
Год издания/переиздания диска: 1961/2019
Издатель (лейбл): RevOla Records
Продолжительность: 34:24
Наличие сканов в содержимом раздачи: Только обложка альбома

Контейнер: FLAC (*.flac)
Тип рипа: tracks
Разрядность: 24/44,1
Формат: PCM
Количество каналов: 2.0

Источник: qobuz.com

Лог проверки качества
foobar2000 1.3.9 / Dynamic Range Meter 1.1.1
log date: 2020-01-05 22:57:20

--------------------------------------------------------------------------------
Analyzed: Frank Sinatra / All The Way
--------------------------------------------------------------------------------

DR         Peak         RMS     Duration Track
--------------------------------------------------------------------------------
DR9       -1.02 dB   -12.89 dB      2:52 01-All The Way
DR11      -1.03 dB   -14.27 dB      2:41 02-High Hopes
DR11      -1.18 dB   -15.32 dB      3:00 03-Talk To Me
DR11      -1.15 dB   -15.07 dB      1:59 04-French Foreign Legion
DR9       -1.15 dB   -14.30 dB      3:49 05-To Love And Be Loved
DR11      -1.65 dB   -14.21 dB      2:36 06-River, Stay 'Way From My Door
DR10      -0.93 dB   -13.27 dB      2:51 07-Witchcraft
DR10      -1.23 dB   -15.25 dB      2:38 08-It's Over, It's Over, It's Over
DR11      -1.13 dB   -15.31 dB      2:39 09-Ol' MacDonald
DR11      -2.82 dB   -16.67 dB      3:24 10-This Was My Love
DR10      -2.02 dB   -15.84 dB      3:12 11-All My Tomorrows
DR11      -3.17 dB   -18.88 dB      2:43 12-Sleep Warm
--------------------------------------------------------------------------------

Number of tracks:  12
Official DR value: DR10

Samplerate:        44100 Hz
Channels:          2
Bits per sample:   24
Bitrate:           1364 kbps
Codec:             FLAC
================================================================================
Приватный:
Нет (DHT включён)
Размер:
357.10 Мб (374,444,814 байт) » файлов: 15
Участники:
0 раздают, 0 качают (0 участников всего)
Внешние участники:
5 раздают, 2 качают (7 участников всего) [ Обновить ]
Есть вопросы - пишите личное сообщение пользователю M0p94ok.
23:11
20
Нет комментариев. Ваш будет первым!