Поиск

2003 Marlena Shaw - Lookin' For Love {Eighty Eight's VRCL-18814} [24-96]

2003 Marlena Shaw - Lookin' For Love {Eighty Eight's VRCL-18814} [24-96]
Стили:
Носитель:
WEB
Формат:
PCM
Тип рипа:
tracks
Контейнер:
FLAC (*.flac)
Количество каналов:
2.0
Разрядность/ЧД:
24/96
Формат записи/Источник записи:
[TR24][OF]
Время звучания:
00:49:16
Наличие сканов:
web
Наличие водяных знаков:
нет
Страна-производитель диска (релиза):
USA
Релизёр (источник):
M0p94ok
Треклист:

01    Hope In A Hopeless World  4:58
02    New York State Of Mind  4:59
03    For All We Know  3:13
04    Just The Two Of Us  4:43
05    Everything Must Change  5:37
06    Here's To Life  4:05
07    Easy Living  4:29
08    Mercy, Mercy, Mercy  3:53
09    What A Wonderful World  4:48
10    Sweet Georgia Brown  2:56
11    You Don't Know What Love Is  5:13

Лог проверки качества
foobar2000 1.4.3 / Dynamic Range Meter 1.1.1
log date: 2020-01-31 12:09:05

--------------------------------------------------------------------------------
Analyzed: Marlena Shaw / Lookin' for Love
--------------------------------------------------------------------------------

DR         Peak         RMS     Duration Track
--------------------------------------------------------------------------------
DR11       0.00 dB   -12.67 dB      4:58 01-Hope in a Hopeless World
DR12       0.00 dB   -14.18 dB      4:59 02-New York State of Mind
DR11       0.00 dB   -15.76 dB      3:14 03-For All We Know
DR12       0.00 dB   -13.52 dB      4:44 04-Just the Two of Us
DR13       0.00 dB   -16.01 dB      5:38 05-Everything Must Change
DR10       0.00 dB   -12.17 dB      4:06 06-Here's to Life
DR11       0.00 dB   -13.82 dB      4:29 07-Easy Living
DR11       0.00 dB   -12.82 dB      3:54 08-Mercy, Mercy, Mercy
DR12       0.00 dB   -14.44 dB      4:48 09-What a Wonderful World
DR12       0.00 dB   -14.32 dB      2:57 10-Sweet Georgia Brown
DR15       0.00 dB   -18.72 dB      5:14 11-You Don't Know What Love Is
--------------------------------------------------------------------------------

Number of tracks:  11
Official DR value: DR12

Samplerate:        96000 Hz
Channels:          2
Bits per sample:   24
Bitrate:           2343 kbps
Codec:             FLAC
================================================================================
Приватный:
Нет (DHT включён)
Размер:
983.97 Мб (1,031,766,870 байт) » файлов: 14
Участники:
1 раздают, 1 качают (2 участников всего)
Внешние участники:
--- [ Обновить ]
Скорость:
1.00 Мб/c 0/c
Есть вопросы - пишите личное сообщение пользователю M0p94ok.
15:43
20
Нет комментариев. Ваш будет первым!