Поиск

2018 Kenichi Tsunoda Big Band - Mixer's Lab Sound Series Vol.3 {Mixer's Lab} [DXD]

2018 Kenichi Tsunoda Big Band - Mixer's Lab Sound Series Vol.3 {Mixer's Lab} [DXD]
Стили:
Треклист:

01. What's Going On (8:48)
02. Moanin' (4:06)
03. I Left My Heart In San Francisco (2:37)
04. I'm Getting Sentimental Over You (3:33)
05. Sir Duke (4:15)
06. Charade - Main Title (4:29)
07. The Shadow Of Your Smile (4:10)
08. Mission Impossible Theme (3:27)
09. The James Bond Theme (3:38)
10. Ironside Theme (3:52)

Доп. инфо:

Формат записи/Источник записи: [DXD][OF]
Наличие водяных знаков: Нет
Год издания/переиздания диска: 2018
Издатель (лейбл): Mixer's Lab
Продолжительность: 00:42:54
Наличие сканов в содержимом раздачи: Только обложка альбома

Контейнер: FLAC (*.flac)
Тип рипа: tracks
Разрядность: 24/384
Формат: DXD
Количество каналов: 2.0

Источник (релизер): http://hi-resmusic.sonyselect.kuke.com/page/album.html?id=2918

Лог проверки качества
foobar2000 1.3.17 / Dynamic Range Meter 1.1.1
log date: 2020-01-10 13:40:51

--------------------------------------------------------------------------------
Analyzed: Kenichi Tsunoda Big Band / Mixer's Lab Sound Series Vol.3
--------------------------------------------------------------------------------

DR         Peak         RMS     Duration Track
--------------------------------------------------------------------------------
DR16      -0.54 dB   -19.08 dB      8:48 01-What's Going On
DR17      -0.04 dB   -20.23 dB      4:06 02-Moanin'
DR13      -4.04 dB   -20.81 dB      2:37 03-I Left My Heart In San Francisco
DR11      -8.30 dB   -22.59 dB      3:33 04-I'm Getting Sentimental Over You
DR16      -0.40 dB   -18.80 dB      4:15 05-Sir Duke
DR15      -0.46 dB   -18.46 dB      4:29 06-Charade - Main Title
DR11      -8.30 dB   -22.88 dB      4:10 07-The Shadow Of Your Smile
DR16      -0.40 dB   -19.40 dB      3:27 08-Mission Impossible Theme
DR16      -0.72 dB   -20.06 dB      3:38 09-The James Bond Theme
DR17      -0.33 dB   -19.91 dB      3:52 10-Ironside Theme
--------------------------------------------------------------------------------

Number of tracks:  10
Official DR value: DR15

Samplerate:        384000 Hz
Channels:          2
Bits per sample:   24
Bitrate:           8658 kbps
Codec:             FLAC
================================================================================
Приватный:
Нет (DHT включён)
Размер:
2.54 Гб (2,731,818,611 байт) » файлов: 12
Участники:
0 раздают, 0 качают (0 участников всего)
Внешние участники:
7 раздают, 2 качают (9 участников всего) [ Обновить ]
Скорость:
0/c 498.87 Кб/c
No seeders - write a personal message to user M0p94ok. Нет сидеров - пишите личное сообщение пользователю M0p94ok.
15:50
51
Нет комментариев. Ваш будет первым!