Поиск

2019 Giovanni Mirabassi & Sarah Lancman (feat. Olivier Bogé) - Intermezzo {Jazz Eleven} [24-44,1]

2019 Giovanni Mirabassi & Sarah Lancman (feat. Olivier Bogé) - Intermezzo {Jazz Eleven} [24-44,1]
Треклист:

01 Il poeta (Composed By – Bruno Lauzi) (2:51)
02 Estate (Composed By – Bruno Brighetti, Bruno Martino) (4:44)
03 Parlami d'amore Mariù (Composed By – Cesare Andrea Bixio, Ennio Neri) (4:51)
04 Ah, che sarà, che sarà (Composed By – Ivano Fossati) (3:58)
05 Vedrai, vedrai (Composed By – Ezio Leoni, Luigi Tenco) (3:40)
06 La canzone di Marinella (Composed By – Fabrizio De André) (5:26)
07 Almeno tu nell'universo (Composed By – Bruno Lauzi, Maurizio Fabrizio) (5:36)
08 Sabato italiano (Composed By – Sergio Caputo) (3:33)
09 Senza fine (Composed By – Gino Paoli) (3:22)

Доп. инфо:

Формат записи/Источник записи: [TR24][OF]
Наличие водяных знаков: Нет
Год издания/переиздания диска: 2019
Издатель (лейбл): Jazz Eleven
Продолжительность: 00:38:01
Наличие сканов в содержимом раздачи: Только обложка альбома
Источник (релизер): qobuz

Контейнер: FLAC (*.flac)
Тип рипа: tracks
Разрядность: 24/44,1
Формат: PCM
Количество каналов: 2.0
Доп. информация: https://www.giovannimirabassi.com/ • https://www.sarahlancman.com/

Лог проверки качества
foobar2000 1.3.16 / Dynamic Range Meter 1.1.1
log date: 2019-06-07 01:30:29

--------------------------------------------------------------------------------
Analyzed: Giovanni Mirabassi, Sarah Lancman, Olivier Bogé / Intermezzo (1)
          Giovanni Mirabassi, Sarah Lancman / Intermezzo (2-9)
--------------------------------------------------------------------------------

DR         Peak         RMS     Duration Track
--------------------------------------------------------------------------------
DR9        0.00 dB   -11.36 dB      5:28 06-La canzone di marinella
DR10       0.00 dB   -14.93 dB      2:52 01-Il poeta
DR9        0.00 dB   -13.07 dB      4:42 02-Estate
DR8        0.00 dB   -11.17 dB      4:51 03-Parlami d'amore mariù (feat. Olivier Bogé)
DR10       0.00 dB   -13.95 dB      3:57 04-Ah che sarà, che sarà
DR11       0.00 dB   -14.84 dB      3:42 05-Vedrai, vedrai
DR9        0.00 dB   -13.49 dB      5:32 07-Almeno tu nell'universo
DR8        0.00 dB   -10.87 dB      3:36 08-Sabato italiano (feat. Olivier Bogé)
DR9        0.00 dB   -12.43 dB      3:21 09-Senza fine (feat. Olivier Bogé)
--------------------------------------------------------------------------------

Number of tracks:  9
Official DR value: DR9

Samplerate:        44100 Hz
Channels:          2
Bits per sample:   24
Bitrate:           1312 kbps
Codec:             FLAC
================================================================================
Приватный:
Нет (DHT включён)
Размер:
354.12 Мб (371,316,672 байт) » файлов: 12
Участники:
0 раздают, 0 качают (0 участников всего)
Внешние участники:
7 раздают, 2 качают (9 участников всего) [ Обновить ]
Есть вопросы - пишите личное сообщение пользователю M0p94ok.
11:19
21
Нет комментариев. Ваш будет первым!